* Dettagli Torrent   globale  | Commenti (0) 


- Arrow.6x02.Tributo.ITA.ENG.1080p.WEB-DLMux.H.264-Morpheus.mkv -


Download via torrent:
Categoria bittorrent SerieTv
Descrizione
[center]

GIUSEPPEiCV & LITTLELINX
HANNO IL PIACERE DI PRESENTARE


STAGIONE 6
WEB-DLMUX 1080p
Dual Language ITA - ENG
Sub ITA - ENG




.: Dati Serie :.

Nazione: Stati Uniti d'America
Anno: 2012 – in produzione
Genere: Azione, avventura, drammatico
Stagione: 5
Episodi: 23
Durata: 45 min circa
Lingua: ITA - ENG
Cast:
• Stephen Amell: Oliver Queen/Arrow/Green Arrow (Freccia Verde)
• Katie Cassidy: Laurel Lance/Black Canary
• Colin Donnell: Tommy Merlyn
• David Ramsey: John Diggle/Spartan
• Emily Bett Rickards: Felicity Smoak/Overwatch
• Manu Bennett: Slade Wilson/Deathstroke
• Colton Haynes: Roy Harper/Arsenal
• John Barrowman: Malcolm Merlyn/Arciere Oscuro
• Willa Holland: Thea Queen/Speedy
• Susanna Thompson: Moira Queen
• Paul Blackthorne: Det. Quentin Lance
• Echo Kellum: Curtis Holt
• Josh Segarra: Adrian Chase


.: Trama  :.

Spoiled billionaire playboy Oliver Queen is missing and presumed dead when his yacht is lost at sea. He returns five years later a changed man, determined to clean up the city as a hooded vigilante armed with a bow.

Basata sul personaggio di Freccia Verde, supereroe protagonista di una serie di fumetti DC Comics, la serie "Arrow" segue le avventure del playboy miliardario Oliver Queen (Stephen Amell); scomparso per anni e da tutti creduto morto dopo il naufragio sull’isola infernale di Lian Yu (il “Purgatorio”), Oliver riesce a tornare finalmente nella sua città, Starling City, dove assume l'identità segreta di Arrow, l'Incappucciato, per combattere il crimine e la corruzione che dilagano in città.
Il piano diabolico di Adrian Chase ha portato Oliver e il Team Arrow ad un confronto finale sull'isola di Lian Yu, dove tutto il gruppo si è trovato in un vero e proprio inferno di fuoco e bombe approntato da Prometheus - un inferno che sembra essere costato la vita all'intero team, lasciando incolumi solo Oliver e il figlio William.
I canonici flashback sul passato di Oliver - ormai esaurito il racconto del suo periodo di formazione nei cinque anni di vagabondaggio prima del ritorno a Star City - vengono sostituiti da rapidissimi intermezzi che ci permettono di vedere cosa è successo subito dopo l'esplosione. Gli avvenimenti su Lian Yu hanno intaccato la vita di numerosi personaggi, come dimostrano Diggle, Quentin e Thea in particolare.
Dopo l'esplosione di Lian Yu, la vita del Team Arrow è quindi completamente cambiata, con Oliver costretto a dividersi tra il ruolo di eroe, quello di sindaco e le sue responsabilità di padre.
Star City però non può difendere da sola: il team dovrà dunque confrontarsi con una nuova minaccia, Black Siren (Kate Cassidy); da tutti creduta morta su Lian Yu, in combutta con Alex Faust (Dominic Bogart) e altri criminali pianificherà una serie di attacchi, che daranno un gran da fare alla squadra nel corso dell’intera stagione.


.: Screenshot :.



.: Caratteristiche Tecniche :.
[spoiler]
Arrow.6x01.Ripercussioni.ITA.ENG.1080p.WEB-DLMux.H.264-Morpheus.mkv
Format                                   : Matroska
Format version                           : Version 4 / Version 2
File size                                : 4.01 GiB
Duration                                 : 40mn 39s
Overall bit rate mode                    : Variable
Overall bit rate                         : 14.1 Mbps
Encoded date                             : UTC 2018-02-05 21:35:58
Writing application                      : mkvmerge v7.6.0 ('Garden of Dreams') 64bit built on Feb  8 2015 15:12:28
Writing library                          : libebml v1.3.1 + libmatroska v1.4.2
DURATION                                 : 00:40:39.360000000
NUMBER_OF_FRAMES                         : 76230
NUMBER_OF_BYTES                          : 117089280
_STATISTICS_WRITING_APP                  : mkvmerge v7.6.0 ('Garden of Dreams') 64bit built on Feb  8 2015 15:12:28
_STATISTICS_WRITING_DATE_UTC             : 2018-02-05 21:35:58
_STATISTICS_TAGS                         : BPS DURATION NUMBER_OF_FRAMES NUMBER_OF_BYTES

Video
ID                                       : 1
Format                                   : AVC
Format/Info                              : Advanced Video Codec
Format profile                           : [email protected]
Format settings, CABAC                   : Yes
Format settings, ReFrames                : 4 frames
Codec ID                                 : V_MPEG4/ISO/AVC
Duration                                 : 40mn 39s
Bit rate mode                            : Variable
Bit rate                                 : 13.2 Mbps
Maximum bit rate                         : 15.0 Mbps
Width                                    : 1 920 pixels
Height                                   : 1 080 pixels
Display aspect ratio                     : 16:9
Frame rate                               : 25.000 fps
Original frame rate                      : 23.976 fps
Color space                              : YUV
Chroma subsampling                       : 4:2:0
Bit depth                                : 8 bits
Scan type                                : Progressive
Bits/(Pixel*Frame)                       : 0.256
Stream size                              : 3.76 GiB (94%)
Default                                  : Yes
Forced                                   : No
Color primaries                          : BT.709-5, BT.1361, IEC 61966-2-4, SMPTE RP177
Transfer characteristics                 : BT.709-5, BT.1361
Matrix coefficients                      : BT.709-5, BT.1361, IEC 61966-2-4 709, SMPTE RP177

Audio #1
ID                                       : 2
Format                                   : AC-3
Format/Info                              : Audio Coding 3
Mode extension                           : CM (complete main)
Codec ID                                 : A_AC3
Duration                                 : 40mn 39s
Bit rate mode                            : Constant
Bit rate                                 : 192 Kbps
Channel(s)                               : 2 channels
Channel positions                        : Front: L R
Sampling rate                            : 48.0 KHz
Bit depth                                : 16 bits
Compression mode                         : Lossy
Stream size                              : 55.8 MiB (1%)
Title                                    : ITA
Language                                 : Italian
Default                                  : Yes
Forced                                   : Yes

Audio #2
ID                                       : 3
Format                                   : AC-3
Format/Info                              : Audio Coding 3
Mode extension                           : CM (complete main)
Codec ID                                 : A_AC3
Duration                                 : 40mn 39s
Bit rate mode                            : Constant
Bit rate                                 : 384 Kbps
Channel(s)                               : 6 channels
Channel positions                        : Front: L C R, Side: L R, LFE
Sampling rate                            : 48.0 KHz
Bit depth                                : 16 bits
Compression mode                         : Lossy
Stream size                              : 112 MiB (3%)
Title                                    : ENG
Language                                 : English
Default                                  : No
Forced                                   : No

Text #1
ID                                       : 4
Format                                   : UTF-8
Codec ID                                 : S_TEXT/UTF8
Codec ID/Info                            : UTF-8 Plain Text
Title                                    : ITA - Forced
Language                                 : Italian
Default                                  : Yes
Forced                                   : Yes

Text #2
ID                                       : 5
Format                                   : UTF-8
Codec ID                                 : S_TEXT/UTF8
Codec ID/Info                            : UTF-8 Plain Text
Language                                 : Italian
Default                                  : No
Forced                                   : No

Text #3
ID                                       : 6
Format                                   : UTF-8
Codec ID                                 : S_TEXT/UTF8
Codec ID/Info                            : UTF-8 Plain Text
Language                                 : English
Default                                  : No
Forced                                   : No


[/spoiler]

.: Ringraziamenti :.




RESTATE IN SEED ALTRIMENTI

 




[/center]
Info: Per scaricare devi usare un client come uTorrent o Transmission
AnnounceURL
http://tracker.tntvillage.scambioetico.org:2710/announce
Hash 6bcaf16e0212c91a1ec05713c21fede8665a27e4
Peers seeds: 1 , leech: 1
Size 3.71 GB
Completato 0x
Aggiunto 13.02.18 - 00:02:17
Uploader   ppb1
Votazione (Voti: 0)


Condividi questo bittorrent:


html/blog:


bbcode/forum:




Aggiungi Commento


counter