* Dettagli Torrent   globale  | Commenti (0) 


- Il debito - The Debt (2010) [XviD - Ita Eng Mp3 - Sub Ita NUEng] BDrip - drammatico, thriller -


Download via torrent:
Categoria bittorrent BDRip
Descrizione
Il debito - The Debt (2010)



Titolo originale: The Debt
Nazionalità: Stati Uniti
Anno: 2010
Genere: drammatico, thriller
Regia: John Madden

Cast:

Helen Mirren: Rachel Singer
Tom Wilkinson: Stephan Gold
Ciarán Hinds: David Peretz
Jessica Chastain: Rachel Singer da giovane
Marton Csokas: Stephan Gold da giovane
Sam Worthington: David Peretz da giovane
Jesper Christensen: Dieter Vogel

La trama del film scorre tra passato e presente. Nel 1965 tre giovani agenti della Mossad, Rachel Singer, Stefan Gold e David Peretz, sono in missione segreta a Berlino Est per catturare e consegnare alla giustizia un criminale di guerra nazista, Dieter Vogel, il temuto chirurgo del Campo di sterminio di Birkenau. La loro missione tuttavia fallisce in quanto, dopo aver rapito Vogel, non riescono poi a trasferirlo ad Ovest come invece era stato pianificato. Sono quindi costretti a tenerlo segregato nel loro appartamento in attesa di elaborare un piano alternativo, cosa che tuttavia non si concretizza. La notte di capodanno Vogel riesce a liberarsi e a sopraffare Rachel (che in quel momento era di guardia da sola) e a fuggire. I tre protagonisti sono pervasi dai sensi di colpa e dalla consapevolezza di avere fallito la missione. Stefan propone allora di concertare una diversa versione dei fatti: riferiranno che Rachel ha sparato a Vogel, uccidendolo, mentre questi fuggiva e che il corpo è stato quindi seppellito. David e Rachel, inizialmente riluttanti, accettano a malincuore di supportare la versione proposta da Stefan. I tre tornano quindi in Israele da eroi.

Nel 1997 Sarah, figlia di Rachel e di Stefan (i due infatti si erano sposati al rientro dalla missione ma poi hanno divorziato), scrive un libro di successo in cui la figura della madre viene esaltata, conformemente alla versione "ufficiale" dei fatti. Proprio allora però gli eventi subiscono una svolta. Prima si assiste al suicidio di David, non più capace di sostenere la menzogna che da oltre trent'anni ha condizionato la vita dei tre protagonisti. Poi un giornalista ucraino scrive un articolo in cui sostiene che Vogel è tuttora vivente in Ucraina, disponibile a rilasciargli un'intervista.

Stefan, che nel frattempo è costretto su una sedia a rotelle, si confronta con Rachel, spiegandole che per salvaguardare la loro versione dei fatti è necessario che lei si rechi in Ucraina per trovare Vogel ed eventualmente ucciderlo. Rachel alla fine acconsente, va a Kiev e, sbirciando tra gli appunti del giornalista, scopre che Vogel è in un ricovero per anziani e disadattati. Si accorge però che l'uomo che sta cercando è in realtà un impostore che, in fin di vita, è probabilmente in cerca di notorietà. Telefona quindi a Stefan per informarlo, dicendogli di non essere più disposta a mentire. Lascia quindi una nota scritta al giornalista, una sorta di confessione, e si prepara ad andarsene. Proprio allora però scorge il vero Vogel tra i pazienti e lo segue in un'ala isolata dell'edificio. I due hanno una colluttazione durante la quale il nazista colpisce per due volte Rachel con una forbice prima che ella possa infine colpirlo con una siringa contenente veleno. Vogel muore mentre Rachel, gravemente ferita, se ne va.
           



General
Complete name                            : D:\Il.Debito.2010.-.XviD.ITA.ENG.MP3.SUB.ITA.ENG.BDRip.avi
Format                                   : AVI
Format/Info                              : Audio Video Interleave
File size                                : 1.04 GiB
Duration                                 : 1 h 53 min
Overall bit rate                         : 1 309 kb/s
Writing application                      : VirtualDubMod 1.5.10.2 (build 2542/release)
Writing library                          : VirtualDubMod build 2542/release

Video
ID                                       : 0
Format                                   : MPEG-4 Visual
Format profile                           : Advanced [email protected]
Format settings, BVOP                    : 1
Format settings, QPel                    : No
Format settings, GMC                     : No warppoints
Format settings, Matrix                  : Default (MPEG)
Codec ID                                 : XVID
Codec ID/Hint                            : XviD
Duration                                 : 1 h 53 min
Bit rate                                 : 1 040 kb/s
Width                                    : 720 pixels
Height                                   : 304 pixels
Display aspect ratio                     : 2.35:1
Frame rate                               : 23.976 (24000/1001) FPS
Color space                              : YUV
Chroma subsampling                       : 4:2:0
Bit depth                                : 8 bits
Scan type                                : Progressive
Compression mode                         : Lossy
Bits/(Pixel*Frame)                       : 0.198
Stream size                              : 843 MiB (79%)
Writing library                          : XviD 67

Audio #1
ID                                       : 1
Format                                   : MPEG Audio
Format version                           : Version 1
Format profile                           : Layer 3
Mode                                     : Joint stereo
Mode extension                           : MS Stereo
Codec ID                                 : 55
Codec ID/Hint                            : MP3
Duration                                 : 1 h 53 min
Bit rate mode                            : Constant
Bit rate                                 : 128 kb/s
Channel(s)                               : 2 channels
Sampling rate                            : 48.0 kHz
Compression mode                         : Lossy
Stream size                              : 104 MiB (10%)
Alignment                                : Aligned on interleaves
Interleave, duration                     : 42  ms (1.00 video frame)
Interleave, preload duration             : 504  ms
Title                                    : Italian
Writing library                          : LAME3.99r
Encoding settings                        : -m j -V 4 -q 2 -lowpass 17 -b 128

Audio #2
ID                                       : 2
Format                                   : MPEG Audio
Format version                           : Version 1
Format profile                           : Layer 3
Mode                                     : Joint stereo
Mode extension                           : MS Stereo
Codec ID                                 : 55
Codec ID/Hint                            : MP3
Duration                                 : 1 h 53 min
Bit rate mode                            : Constant
Bit rate                                 : 128 kb/s
Channel(s)                               : 2 channels
Sampling rate                            : 48.0 kHz
Compression mode                         : Lossy
Stream size                              : 104 MiB (10%)
Alignment                                : Aligned on interleaves
Interleave, duration                     : 42  ms (1.00 video frame)
Interleave, preload duration             : 504  ms
Title                                    : English
Writing library                          : LAME3.99r
Encoding settings                        : -m j -V 4 -q 2 -lowpass 17 -b 128

General
Complete name                            : D:\Il.Debito.2010.-.XviD.ITA.ENG.MP3.SUB.ITA.ENG.BDRip\Il.Debito.2010.-.XviD.ITA.ENG.MP3.SUB.ITA.ENG.BDRip.en.srt
File size                                : 67.5 KiB

General
Complete name                            : D:\Il.Debito.2010.-.XviD.ITA.ENG.MP3.SUB.ITA.ENG.BDRip\Il.Debito.2010.-.XviD.ITA.ENG.MP3.SUB.ITA.ENG.BDRip.engSDH(NU).srt
Format                                   : SubRip
File size                                : 14.7 KiB

Text
Format                                   : SubRip
Compression mode                         : Lossless

General
Complete name                            : D:\Il.Debito.2010.-.XviD.ITA.ENG.MP3.SUB.ITA.ENG.BDRip\Il.Debito.2010.-.XviD.ITA.ENG.MP3.SUB.ITA.ENG.BDRip.it.srt
File size                                : 56.5 KiB

General
Complete name                            : D:\Il.Debito.2010.-.XviD.ITA.ENG.MP3.SUB.ITA.ENG.BDRip\Il.Debito.2010.-.XviD.ITA.ENG.MP3.SUB.ITA.ENG.BDRip.srt
File size                                : 14.3 KiB

Grazie all'autore del rip a 1080p: io ho solo ridotto e convertito in XviD.

Info: Per scaricare devi usare un client come uTorrent o Transmission
AnnounceURL
http://tracker.tntvillage.scambioetico.org:2710/announce
Hash 1fcc8759ae6065f7f1acfd6c3276ca0ca74a25ed
Peers seeds: 7 , leech: 1
Size 1.04 GB
Completato 1126x
Aggiunto 12.02.18 - 17:02:14
Uploader   alicerasi
Votazione (Voti: 0)


Condividi questo bittorrent:


html/blog:


bbcode/forum:




Aggiungi Commento


counter