* Dettagli Torrent   globale  | Commenti (1) 


- The Cloverfield Paradox (2018).720p.H264.italian.english.Ac3-5.1.Multisub.MIRCrew -


Download via torrent:
Categoria bittorrent BDRip
Descrizione
The Cloverfield Paradox (201.720p.H264.italian.english.Ac3-5.1.Multisub.MIRCrew


NO FOUND ONLY ORIGINAL RELEASE



My release is always in double track audio italian and Original audio
for select it use VLC or dvd player home
not use wmp

The Cloverfield Paradox

2018


Qualità MIRCrew in HD 720p da 1,80 gb







Titolo originale The Cloverfield Paradox
Lingua originale inglese
Paese di produzione Stati Uniti d'America
Anno 2018
Durata 102 min
Genere fantascienza, thriller
Regia Julius Onah
Soggetto Oren Uziel, Doug Jung
Sceneggiatura Oren Uziel
Produttore J. J. Abrams, Lindsey Weber
Casa di produzione Paramount Pictures, Bad Robot Productions
Distribuzione (Italia) Netflix
Fotografia Dan Mindel
Montaggio Alan Baumgarten
Musiche Bear McCreary



   Gugu Mbatha-Raw: Hamilton
   Daniel Brühl: Schmidt
   Elizabeth Debicki: Jensen
   Chris O'Dowd: Mundy
   John Ortiz: Acosta
   David Oyelowo: Comandante Kiel
   Zhang Ziyi: Tam
   Aksel Hennie: Volkov
   Donal Logue: Mark Stambler



Inviati nello spazio per risolvere una crisi energetica e scongiurare la distruzione del pianeta, alcuni scienziati devono fare i conti con un'oscura realtà alternativa. .............



Orbiting a planet on the brink of war, scientists test a device to solve an energy crisis, and end up face-to-face with a dark alternate reality.










General
Unique ID                                : 232664730906755275713911321388693745801 (0xAF0998E3C7172DD6B16F1EAE3FB27089)
Complete name                            : The Cloverfield Paradox (201.720p.H264.ita.eng.multisub-MIRCrew\The Cloverfield Paradox (201.720p.H264.ita.eng.multisub-MIRCrew.mkv
Format                                   : Matroska
Format version                           : Version 2
File size                                : 1.79 GiB
Duration                                 : 1h 42mn
Overall bit rate                         : 2 502 Kbps
Movie name                               : MIRCrew
Encoded date                             : UTC 2018-02-08T08:09:21Z
Writing application                      : mkvmerge v5.4.0 ('Piper') built on Mar 10 2012 13:34:39
Writing library                          : Lavf55.12.0

Video
ID                                       : 1
Format                                   : AVC
Format/Info                              : Advanced Video Codec
Format profile                           : [email protected]
Format settings, CABAC                   : Yes
Format settings, ReFrames                : 4 frames
Codec ID                                 : V_MPEG4/ISO/AVC
Duration                                 : 1h 42mn
Bit rate                                 : 1 700 Kbps
Width                                    : 1 280 pixels
Height                                   : 528 pixels
Display aspect ratio                     : 2.40:1
Frame rate mode                          : Variable
Frame rate                               : 23.976 fps
Color space                              : YUV
Chroma subsampling                       : 4:2:0
Bit depth                                : 8 bits
Scan type                                : Progressive
Bits/(Pixel*Frame)                       : 0.105
Stream size                              : 1.16 GiB (65%)
Title                                    : The Cloverfield Paradox (201.720p.H264.ita.eng.multisub-MIRCrew
Writing library                          : x264 core 142 r2479 dd79a61
Encoding settings                        : cabac=1 / ref=3 / deblock=1:0:0 / analyse=0x3:0x113 / me=hex / subme=7 / psy=1 / psy_rd=1.00:0.00 / mixed_ref=1 / me_range=16 / chroma_me=1 / trellis=1 / 8x8dct=1 / cqm=0 / deadzone=21,11 / fast_pskip=1 / chroma_qp_offset=-2 / threads=3 / lookahead_threads=1 / sliced_threads=0 / nr=0 / decimate=1 / interlaced=0 / bluray_compat=0 / constrained_intra=0 / bframes=3 / b_pyramid=2 / b_adapt=1 / b_bias=0 / direct=1 / weightb=1 / open_gop=0 / weightp=2 / keyint=240 / keyint_min=24 / scenecut=40 / intra_refresh=0 / rc_lookahead=40 / rc=abr / mbtree=1 / bitrate=1700 / ratetol=1.0 / qcomp=0.60 / qpmin=0 / qpmax=69 / qpstep=4 / vbv_maxrate=62500 / vbv_bufsize=78125 / nal_hrd=none / filler=0 / ip_ratio=1.40 / aq=1:1.00
Language                                 : Italian
Default                                  : Yes
Forced                                   : No
Color primaries                          : BT.709-5, BT.1361, IEC 61966-2-4, SMPTE RP177
Transfer characteristics                 : BT.709-5, BT.1361
Matrix coefficients                      : BT.709-5, BT.1361, IEC 61966-2-4 709, SMPTE RP177

Audio #1
ID                                       : 2
Format                                   : AC-3
Format/Info                              : Audio Coding 3
Mode extension                           : CM (complete main)
Codec ID                                 : A_AC3
Duration                                 : 1h 42mn
Bit rate mode                            : Constant
Bit rate                                 : 384 Kbps
Channel(s)                               : 6 channels
Channel positions                        : Front: L C R, Side: L R, LFE
Sampling rate                            : 48.0 KHz
Bit depth                                : 16 bits
Compression mode                         : Lossy
Delay relative to video                  : -5ms
Stream size                              : 281 MiB (15%)
Title                                    : Ita Acr 5.1
Language                                 : Italian
Default                                  : Yes
Forced                                   : No

Audio #2
ID                                       : 3
Format                                   : E-AC-3
Format/Info                              : Audio Coding 3
Codec ID                                 : A_EAC3
Duration                                 : 1h 42mn
Bit rate mode                            : Constant
Bit rate                                 : 448 Kbps
Channel(s)                               : 6 channels
Channel positions                        : Front: L C R, Side: L R, LFE
Sampling rate                            : 48.0 KHz
Compression mode                         : Lossy
Delay relative to video                  : -83ms
Stream size                              : 328 MiB (18%)
Title                                    : eng Ac3 5.1
Language                                 : English
Default                                  : No
Forced                                   : No



Info: Per scaricare devi usare un client come uTorrent o Transmission
AnnounceURL
udp://tracker.coppersurfer.tk:6969/announce
Hash 85182cb930e18633d2a43cfe54d37828fc1834b0
Peers seeds: 290 , leech: 59
Size 1.79 GB
Completato 8310x
Aggiunto 08.02.18 - 17:02:05
Uploader   robbyrs
Votazione (Voti: 1)


Condividi questo bittorrent:


html/blog:


bbcode/forum:




Aggiungi Commento
Ultimi commenti
 ppb1   

09/02 00.24
Tutti commenti (1)


counter