* Dettagli Torrent   globale  | Commenti (1) 


- Knights of the damned - Il risveglio del drago (2017).720p.H264.italian.english.Ac3-5.1.sub.ita.NUit -


Download via torrent:
Categoria bittorrent BDRip
Descrizione
Knights of the damned - Il risveglio del drago (2017).720p.H264.italian.english.Ac3-5.1.sub.ita.NUita.eng.MIRCrew


NO FOUND ONLY ORIGINAL RELEASE



My release is always in double track audio italian and Original audio
for select it use VLC or dvd player home
not use wmp

Knights of the damned

Il risveglio del drago

(2017)


Qualità MIRCrew in HD 720p da 1,6 gb







Titolo originale: Knights of the Damned
Regia: Simon Wells
Paese: Gran Bretagna
Anno: 2017



Ben Loyd-Holmes, Ross O'Hennessy, Zara Pythian



Il re ha mandato i suoi migliori cavalieri a sconfiggere il drago che assedia il suo castello. Durante la loro epica avventura, incontrano sirene malvagie, donne guerriere in cerca di vendetta e un inarrestabile esercito di morti viventi. Riusciranno a sopravvivere?….............



The King has sent his best Knights to defeat the Dragon besieging his castle. Along their epic adventure they encounter malicious sirens, warrior women on a mission of revenge and an unstoppable army of the undead. Can they survive?











General
Unique ID                                : 271614226201378369702481147174754016942 (0xCC56FF45A24CC77146ACE713AEBD5EAE)
Complete name                            : Knights of the damned - Il risveglio del drago (2017).720p.ita.eng.sub.ita.NUita.engMIRCrew\Knights of the damned - Il risveglio del drago (2017).720p-MIRCrew.mkv
Format                                   : Matroska
Format version                           : Version 2
File size                                : 1.52 GiB
Duration                                 : 1h 23mn
Overall bit rate                         : 2 600 Kbps
Encoded date                             : UTC 2018-02-07T08:35:16Z
Writing application                      : HandBrake 0.10.5 2016021100
Writing library                          : Lavf55.12.0

Video
ID                                       : 1
Format                                   : AVC
Format/Info                              : Advanced Video Codec
Format profile                           : [email protected]
Format settings, CABAC                   : Yes
Format settings, ReFrames                : 4 frames
Codec ID                                 : V_MPEG4/ISO/AVC
Duration                                 : 1h 23mn
Bit rate                                 : 1 653 Kbps
Nominal bit rate                         : 1 750 Kbps
Width                                    : 1 280 pixels
Height                                   : 544 pixels
Display aspect ratio                     : 2.35:1
Frame rate mode                          : Variable
Frame rate                               : 25.000 fps
Color space                              : YUV
Chroma subsampling                       : 4:2:0
Bit depth                                : 8 bits
Scan type                                : Progressive
Bits/(Pixel*Frame)                       : 0.095
Stream size                              : 992 MiB (64%)
Writing library                          : x264 core 142 r2479 dd79a61
Encoding settings                        : cabac=1 / ref=3 / deblock=1:0:0 / analyse=0x3:0x113 / me=hex / subme=7 / psy=1 / psy_rd=1.00:0.00 / mixed_ref=1 / me_range=16 / chroma_me=1 / trellis=1 / 8x8dct=1 / cqm=0 / deadzone=21,11 / fast_pskip=1 / chroma_qp_offset=-2 / threads=3 / lookahead_threads=1 / sliced_threads=0 / nr=0 / decimate=1 / interlaced=0 / bluray_compat=0 / constrained_intra=0 / bframes=3 / b_pyramid=2 / b_adapt=1 / b_bias=0 / direct=1 / weightb=1 / open_gop=0 / weightp=2 / keyint=250 / keyint_min=25 / scenecut=40 / intra_refresh=0 / rc_lookahead=40 / rc=abr / mbtree=1 / bitrate=1750 / ratetol=1.0 / qcomp=0.60 / qpmin=0 / qpmax=69 / qpstep=4 / vbv_maxrate=62500 / vbv_bufsize=78125 / nal_hrd=none / filler=0 / ip_ratio=1.40 / aq=1:1.00
Default                                  : Yes
Forced                                   : No
Color primaries                          : BT.709-5, BT.1361, IEC 61966-2-4, SMPTE RP177
Transfer characteristics                 : BT.709-5, BT.1361
Matrix coefficients                      : BT.709-5, BT.1361, IEC 61966-2-4 709, SMPTE RP177

Audio #1
ID                                       : 2
Format                                   : AC-3
Format/Info                              : Audio Coding 3
Mode extension                           : CM (complete main)
Codec ID                                 : A_AC3
Duration                                 : 1h 23mn
Bit rate mode                            : Constant
Bit rate                                 : 448 Kbps
Channel(s)                               : 6 channels
Channel positions                        : Front: L C R, Side: L R, LFE
Sampling rate                            : 48.0 KHz
Bit depth                                : 16 bits
Compression mode                         : Lossy
Delay relative to video                  : 1mn 5s
Stream size                              : 269 MiB (17%)
Title                                    : Surround
Language                                 : Italian
Default                                  : Yes
Forced                                   : No

Audio #2
ID                                       : 3
Format                                   : AC-3
Format/Info                              : Audio Coding 3
Mode extension                           : CM (complete main)
Codec ID                                 : A_AC3
Duration                                 : 1h 23mn
Bit rate mode                            : Constant
Bit rate                                 : 448 Kbps
Channel(s)                               : 6 channels
Channel positions                        : Front: L C R, Side: L R, LFE
Sampling rate                            : 48.0 KHz
Bit depth                                : 16 bits
Compression mode                         : Lossy
Delay relative to video                  : 1mn 5s
Stream size                              : 269 MiB (17%)
Title                                    : Surround
Language                                 : English
Default                                  : No
Forced                                   : No

Menu
00:00:00.000                             : :Capitolo 01
00:05:08.360                             : :Capitolo 02
00:17:32.960                             : :Capitolo 03
00:30:14.680                             : :Capitolo 04
00:47:19.200                             : :Capitolo 05
00:59:43.440                             : :Capitolo 06
01:10:48.840                             : :Capitolo 07
01:17:24.920                             : :Capitolo 08






Info: Per scaricare devi usare un client come uTorrent o Transmission
AnnounceURL
udp://tracker.coppersurfer.tk:6969/announce
Hash 83175272fc4746853b9550084daf2c38cea3241b
Peers seeds: 129 , leech: 34
Size 1.52 GB
Completato 4897x
Aggiunto 07.02.18 - 15:02:06
Uploader   robbyrs
Votazione (Voti: 1)


Condividi questo bittorrent:


html/blog:


bbcode/forum:




Aggiungi Commento
Ultimi commenti
  
film piu' brutto del mondo con effetti speciali ridicoli!!
09/02 18.00
Tutti commenti (1)


counter