* Dettagli Torrent   globale  | Commenti (0) 


- Il domani tra di noi (2017) Kate Winslet.720p.H264.italian.english.Ac3-5.1.sub.ita.eng-MIRCrew -


Download via torrent:
Categoria bittorrent BDRip
Descrizione
Il domani tra di noi - The Mountain Between Us (2017).720p.H264.italian.english.Ac3-5.1.sub.ita.eng.MIRCrew



NO FOUND ONLY ORIGINAL RELEASE





My release is always in double track audio italian and Original audio
for select it use VLC or dvd player home
not use wmp

Il domani tra di noi

The Mountain Between Us

(2017)


Qualità MIRCrew in HD 720p da 2,0 gb







GENERE: Drammatico, Sentimentale
ANNO: 2017
REGIA: Hany Abu-Assad

PAESE: USA
DURATA: 112 Min
DISTRIBUZIONE: 20th Century Fox



Idris Elba, Kate Winslet, Dermot Mulroney, Beau Bridges, Lucia Walters, Vincent Gale



Basato sull'omonimo romanzo di Charles Martin, Il domani tra di noi comincia durante una violenta tempesta invernale. Due sconosciuti si incontrano al gate, in attesa di imbarcarsi sull'ultimo volo disponibile. Ashley Knox (Kate Winslet) è una fotoreporter di successo, in viaggio per partecipare alle sue nozze, Ben Payne (Idris Elba) è un medico di ritorno da una conferenza, per un'operazione chirurgica programmata nel giorno seguente..................



Stranded after a tragic plane crash, two strangers must forge a connection to survive the extreme elements of a remote snow-covered mountain. When they realize help is not coming, they embark on a perilous journey across the wilderness. ............










General
Unique ID                                : 188264187074190505482063848633796063996 (0x8DA25D1093A2B286BCEC45B922B6F2FC)
Complete name                            : Il domani tra di noi - The Mountain Between Us (2017).720p.H264.ita.eng.sub.ita.eng-MIRCrew\Il domani tra di noi - The Mountain Between Us (2017).720p.H264.ita.eng.sub.ita.eng-MIRCrew.mkv
Format                                   : Matroska
Format version                           : Version 2
File size                                : 2.00 GiB
Duration                                 : 1h 51mn
Overall bit rate                         : 2 561 Kbps
Movie name                               : MIRCrew
Encoded date                             : UTC 2018-02-06T14:35:27Z
Writing application                      : mkvmerge v5.4.0 ('Piper') built on Mar 10 2012 13:34:39
Writing library                          : Lavf55.12.0

Video
ID                                       : 1
Format                                   : AVC
Format/Info                              : Advanced Video Codec
Format profile                           : [email protected]
Format settings, CABAC                   : Yes
Format settings, ReFrames                : 4 frames
Codec ID                                 : V_MPEG4/ISO/AVC
Duration                                 : 1h 51mn
Bit rate                                 : 1 614 Kbps
Nominal bit rate                         : 1 700 Kbps
Width                                    : 1 280 pixels
Height                                   : 528 pixels
Display aspect ratio                     : 2.40:1
Frame rate mode                          : Variable
Frame rate                               : 23.976 fps
Color space                              : YUV
Chroma subsampling                       : 4:2:0
Bit depth                                : 8 bits
Scan type                                : Progressive
Bits/(Pixel*Frame)                       : 0.100
Stream size                              : 1.26 GiB (63%)
Title                                    : Il domani tra di noi - The Mountain Between Us (2017).720p-MIRCrew
Writing library                          : x264 core 142 r2479 dd79a61
Encoding settings                        : cabac=1 / ref=3 / deblock=1:0:0 / analyse=0x3:0x113 / me=hex / subme=7 / psy=1 / psy_rd=1.00:0.00 / mixed_ref=1 / me_range=16 / chroma_me=1 / trellis=1 / 8x8dct=1 / cqm=0 / deadzone=21,11 / fast_pskip=1 / chroma_qp_offset=-2 / threads=3 / lookahead_threads=1 / sliced_threads=0 / nr=0 / decimate=1 / interlaced=0 / bluray_compat=0 / constrained_intra=0 / bframes=3 / b_pyramid=2 / b_adapt=1 / b_bias=0 / direct=1 / weightb=1 / open_gop=0 / weightp=2 / keyint=240 / keyint_min=24 / scenecut=40 / intra_refresh=0 / rc_lookahead=40 / rc=abr / mbtree=1 / bitrate=1700 / ratetol=1.0 / qcomp=0.60 / qpmin=0 / qpmax=69 / qpstep=4 / vbv_maxrate=62500 / vbv_bufsize=78125 / nal_hrd=none / filler=0 / ip_ratio=1.40 / aq=1:1.00
Language                                 : Italian
Default                                  : Yes
Forced                                   : No
Color primaries                          : BT.709-5, BT.1361, IEC 61966-2-4, SMPTE RP177
Transfer characteristics                 : BT.709-5, BT.1361
Matrix coefficients                      : BT.709-5, BT.1361, IEC 61966-2-4 709, SMPTE RP177

Audio #1
ID                                       : 2
Format                                   : AC-3
Format/Info                              : Audio Coding 3
Mode extension                           : CM (complete main)
Codec ID                                 : A_AC3
Duration                                 : 1h 51mn
Bit rate mode                            : Constant
Bit rate                                 : 448 Kbps
Channel(s)                               : 6 channels
Channel positions                        : Front: L C R, Side: L R, LFE
Sampling rate                            : 48.0 KHz
Bit depth                                : 16 bits
Compression mode                         : Lossy
Delay relative to video                  : -5ms
Stream size                              : 358 MiB (17%)
Title                                    : Ita Ac3 5.1
Language                                 : Italian
Default                                  : Yes
Forced                                   : No

Audio #2
ID                                       : 3
Format                                   : AC-3
Format/Info                              : Audio Coding 3
Mode extension                           : CM (complete main)
Codec ID                                 : A_AC3
Duration                                 : 1h 51mn
Bit rate mode                            : Constant
Bit rate                                 : 448 Kbps
Channel(s)                               : 6 channels
Channel positions                        : Front: L C R, Side: L R, LFE
Sampling rate                            : 48.0 KHz
Bit depth                                : 16 bits
Compression mode                         : Lossy
Delay relative to video                  : -5ms
Stream size                              : 358 MiB (17%)
Title                                    : eng Ac3 5.1
Language                                 : English
Default                                  : No
Forced                                   : No

Menu
00:00:00.000                             : 01)00:00:00:000
00:02:58.678                             : 02)00:02:58:595
00:08:52.865                             : 03)00:08:52:782
00:13:15.461                             : 04)00:13:15:377
00:16:21.563                             : 05)00:16:21:480
00:21:36.336                             : 06)00:21:36:253
00:26:52.068                             : 07)00:26:51:985
00:31:53.453                             : 000:31:53:369
00:38:56.167                             : 09)00:38:56:083
00:43:45.456                             : 10)00:43:45:372
00:51:04.394                             : 11)00:51:04:311
00:57:28.820                             : 12)00:57:28:736
01:01:22.804                             : 13)01:01:22:720
01:04:39.500                             : 14)01:04:39:417
01:07:41.140                             : 15)01:07:41:057
01:11:06.512                             : 16)01:11:06:428
01:14:56.617                             : 17)01:14:56:533
01:19:15.208                             : 101:19:15:125
01:23:48.481                             : 19)01:23:48:398
01:27:52.558                             : 20)01:27:52:475
01:32:13.653                             : 21)01:32:13:569
01:35:41.735                             : 22)01:35:41:652
01:41:48.352                             : 23)01:41:48:268
01:45:22.566                             : 24)01:45:22:482



Info: Per scaricare devi usare un client come uTorrent o Transmission
AnnounceURL
udp://tracker.coppersurfer.tk:6969/announce
Hash d47c7602cbbe425e93b5892215d358b086d4143b
Peers seeds: 364 , leech: 126
Size 2.00 GB
Completato 3305x
Aggiunto 07.02.18 - 00:02:06
Uploader   robbyrs
Votazione (Voti: 0)


Condividi questo bittorrent:


html/blog:


bbcode/forum:




Aggiungi Commento


counter