* Dettagli Torrent   globale  | Commenti (0) 


- Un eredita per Natale (2017) Eliza Taylor.H264.italian.english.Ac3-5.1.sub.ita.eng.MIRCrew -


Download via torrent:
Categoria bittorrent BDRip
Descrizione
Christmas Inheritance - Un'eredita per Natale (2017) Eliza Taylor.H264.italian.english.Ac3-5.1.sub.ita.eng.MIRCrew


NO FOUND ONLY ORIGINAL RELEASE



My release is always in double track audio italian and Original audio
for select it use VLC or dvd player home
not use wmp

Un'eredita per Natale

Christmas Inheritance

(2017)








Titolo originale Christmas Inheritance
Lingua originale inglese
Paese di produzione Stati Uniti d'America
Anno 2017
Durata 104 min
Rapporto 16:9
Genere sentimentale
Regia Ernie Barbarash
Sceneggiatura Dinah Eng
Produttore David Anselmo
Casa di produzione Motion Picture Corporation of America
Distribuzione (Italia) Netflix
Fotografia Peter Benison
Montaggio Gordon McClellan
Musiche Terry Frewer



   Eliza Taylor: Ellen Langford
   Jake Lacy: Jake Collins
   Andie MacDowell: Debbie Collins
   Neil Crone: Jim Langford
   Michael Xavier: Gray Pittman
   Lori Hallier: Alice
   Mag Ruffman: Kathy Martin
   Bill Lake: Capitano Williams
   Anthony Sherwood: Zio Zeke / Babbo Natale
   Martin Roach: Sceriffo Paul Greenleaf
   Lindsay Leese: Mrs. Worthington
   Joanna Douglas: Cara Chandler
   Mikayla Radan: Olivia 'Livvy' Chandler
   Telysa Chandler: Annabelle
   John Tench: Baxter



Prima che l'ambiziosa ereditiera Ellen Langford possa ereditare l'azienda di suo padre, deve consegnare una speciale lettera di Natale ad un grande amico e vecchio socio di suo padre che si trova a Snow Falls........................



Before ambitious heiress Ellen Langford can inherit her father's gift business, she must deliver a special Christmas card to her dad's former partner in Snow Falls, the hometown she never ...............













General
Unique ID                                : 221668415422142411911048793384367004840 (0xA6C3C8AD94C2C45AB4EA1D2BAC519CA
Complete name                            : Un'eredita per Natale - Christmas Inheritance (2017).H264.ita.eng.sub.ita.eng-MIRCrew\Un'eredita per Natale - Christmas Inheritance (2017).H264.ita.eng.sub.ita.eng-MIRCrew.mkv
Format                                   : Matroska
Format version                           : Version 2
File size                                : 1.55 GiB
Duration                                 : 1h 44mn
Overall bit rate                         : 2 123 Kbps
Movie name                               : MIRCrew
Encoded date                             : UTC 2018-02-05 14:46:53
Writing application                      : mkvmerge v5.4.0 ('Piper') built on Mar 10 2012 13:34:39
Writing library                          : Lavf54.63.100
COPYRIGHT                                : robbyrs-iCN

Video
ID                                       : 1
Format                                   : AVC
Format/Info                              : Advanced Video Codec
Format profile                           : [email protected]
Format settings, CABAC                   : Yes
Format settings, ReFrames                : 2 frames
Codec ID                                 : V_MPEG4/ISO/AVC
Duration                                 : 1h 44mn
Bit rate                                 : 1 300 Kbps
Width                                    : 720 pixels
Height                                   : 384 pixels
Display aspect ratio                     : 1.898
Original display aspect ratio            : 1.897
Frame rate mode                          : Variable
Frame rate                               : 23.976 fps
Color space                              : YUV
Chroma subsampling                       : 4:2:0
Bit depth                                : 8 bits
Scan type                                : Progressive
Bits/(Pixel*Frame)                       : 0.196
Stream size                              : 934 MiB (59%)
Title                                    : Un'eredita per Natale - Christmas Inheritance (2017) - MIRCrew
Writing library                          : x264 core 130 r2273
Encoding settings                        : cabac=1 / ref=2 / deblock=1:0:0 / analyse=0x1:0x131 / me=hex / subme=7 / psy=1 / psy_rd=1.00:0.00 / mixed_ref=0 / me_range=16 / chroma_me=1 / trellis=1 / 8x8dct=0 / cqm=0 / deadzone=21,11 / fast_pskip=1 / chroma_qp_offset=-2 / threads=3 / lookahead_threads=1 / sliced_threads=0 / nr=0 / decimate=1 / interlaced=0 / bluray_compat=0 / constrained_intra=0 / bframes=3 / b_pyramid=0 / b_adapt=1 / b_bias=0 / direct=3 / weightb=1 / open_gop=0 / weightp=2 / keyint=230 / keyint_min=23 / scenecut=40 / intra_refresh=0 / rc_lookahead=40 / rc=abr / mbtree=1 / bitrate=1300 / ratetol=1.0 / qcomp=0.60 / qpmin=10 / qpmax=69 / qpstep=4 / vbv_maxrate=24000 / vbv_bufsize=24000 / nal_hrd=none / ip_ratio=1.40 / aq=1:1.00
Language                                 : Italian
Default                                  : Yes
Forced                                   : No
DURATION                                 : 01:44:33.017000000
NUMBER_OF_FRAMES                         : 150402
NUMBER_OF_BYTES                          : 7668435633
_STATISTICS_WRITING_APP                  : mkvmerge v8.3.0 ('Over the Horizon') 64bit
_STATISTICS_WRITING_DATE_UTC             : 2017-12-19 20:38:37
_STATISTICS_TAGS                         : BPS DURATION NUMBER_OF_FRAMES NUMBER_OF_BYTES

Audio #1
ID                                       : 2
Format                                   : AC-3
Format/Info                              : Audio Coding 3
Mode extension                           : CM (complete main)
Codec ID                                 : A_AC3
Duration                                 : 1h 44mn
Bit rate mode                            : Constant
Bit rate                                 : 448 Kbps
Channel(s)                               : 6 channels
Channel positions                        : Front: L C R, Side: L R, LFE
Sampling rate                            : 48.0 KHz
Bit depth                                : 16 bits
Compression mode                         : Lossy
Delay relative to video                  : -5ms
Stream size                              : 335 MiB (21%)
Title                                    : Ita Ac3 5.1
Language                                 : Italian
Default                                  : Yes
Forced                                   : No
DURATION                                 : 01:44:33.120000000
NUMBER_OF_FRAMES                         : 196035
NUMBER_OF_BYTES                          : 351294720
_STATISTICS_WRITING_APP                  : mkvmerge v8.3.0 ('Over the Horizon') 64bit
_STATISTICS_WRITING_DATE_UTC             : 2017-12-19 20:38:37
_STATISTICS_TAGS                         : BPS DURATION NUMBER_OF_FRAMES NUMBER_OF_BYTES

Audio #2
ID                                       : 3
Format                                   : AC-3
Format/Info                              : Audio Coding 3
Mode extension                           : CM (complete main)
Codec ID                                 : A_AC3
Duration                                 : 1h 44mn
Bit rate mode                            : Constant
Bit rate                                 : 384 Kbps
Channel(s)                               : 6 channels
Channel positions                        : Front: L C R, Side: L R, LFE
Sampling rate                            : 48.0 KHz
Bit depth                                : 16 bits
Compression mode                         : Lossy
Stream size                              : 287 MiB (18%)
Title                                    : eng Ac3 5.1
Language                                 : English
Default                                  : No
Forced                                   : No
DURATION                                 : 01:44:33.056000000
NUMBER_OF_FRAMES                         : 196033
NUMBER_OF_BYTES                          : 301106688
_STATISTICS_WRITING_APP                  : mkvmerge v8.3.0 ('Over the Horizon') 64bit
_STATISTICS_WRITING_DATE_UTC             : 2017-12-19 20:38:37
_STATISTICS_TAGS                         : BPS DURATION NUMBER_OF_FRAMES NUMBER_OF_BYTES



Info: Per scaricare devi usare un client come uTorrent o Transmission
AnnounceURL
udp://tracker.coppersurfer.tk:6969/announce
Hash 25f368e534abb8f16f6748f2b8ea39f13a8dd8fd
Peers seeds: 140 , leech: 54
Size 1.55 GB
Completato 1410x
Aggiunto 06.02.18 - 11:02:56
Uploader   robbyrs
Votazione (Voti: 0)


Condividi questo bittorrent:


html/blog:


bbcode/forum:




Aggiungi Commento


counter