* Dettagli Torrent   globale  | Commenti (0) 


- Crossing Point - I signori della droga (2016).H264.italian.english.Ac3-5.sub.ita.MIRCrew -


Download via torrent:
Categoria bittorrent BDRip
Descrizione
Crossing Point - I signori della droga (2016).H264.italian.english.Ac3-5.sub.ita.MIRCrew



NO FOUND ONLY ORIGINAL RELEASE



My release is always in double track audio italian and Original audio
for select it use VLC or dvd player home
not use wmp

Crossing Point

I signori della droga

(2016)








Titolo originale Crossing Point
Lingua originale inglese
Paese di produzione Usa
Anno 2016
Durata 92 min
Genere azione
Regia Daniel Zirilli
Sceneggiatura Shawn Lock
Produttore Shawn Lock
Casa di produzione Pop Art Film Factory
Montaggio Michael Courtney
Musiche Paul Cristo
Costumi Erica Howard



   Shawn Lock: Michael
   Paulina Gaitan: Lucille
   Tom Sizemore: Pedro
   Jacob Vargas: Jesus
   María Gabriela de Faría: Olivia
   Rudy Youngblood: Mateo
   Luke Goss: Decker
   Damon Whitaker: DEA Tech



Michael (Shawn Lock) e Olivia (María Gabriela de Faría) sono due fidanzati in vacanza a Baja, ma la loro vacanza diventa un incubo quando Olivia viene rapita da un cartello della droga, che chiede a Michael di rubare uno zaino pieno di cocaina a un cartello rivale ed attraversare il confine degli Stati Uniti entro dodici ore o altrimenti Olivia sarà uccisa..........



A young American couple in love, Michael (Shawn Lock) and Olivia (María Gabriela de Faría) vacation in Baja, but things take a frightening turn when Olivia is kidnapped by a drug dealer, ...........













General
Unique ID                                : 31753085581980824098648890179325039202 (0x17E36BFD5F479BFDADC229E0E0309262)
Complete name                            : Crossing Point - I signori della droga (2016).H264.ita.eng.sub.ita-MIRCrew\Crossing Point - I signori della droga (2016).H264.ita.eng.sub.ita-MIRCrew.mkv
Format                                   : Matroska
Format version                           : Version 2
File size                                : 1.14 GiB
Duration                                 : 1h 31mn
Overall bit rate                         : 1 781 Kbps
Movie name                               : MIRCrew
Encoded date                             : UTC 2018-02-05 10:50:33
Writing application                      : Lavf54.63.100
Writing library                          : Lavf54.63.100
COPYRIGHT                                : robbyrs-iCN

Video
ID                                       : 1
Format                                   : AVC
Format/Info                              : Advanced Video Codec
Format profile                           : [email protected]
Format settings, CABAC                   : Yes
Format settings, ReFrames                : 2 frames
Codec ID                                 : V_MPEG4/ISO/AVC
Duration                                 : 1h 31mn
Bit rate                                 : 1 234 Kbps
Nominal bit rate                         : 1 300 Kbps
Width                                    : 720 pixels
Height                                   : 404 pixels
Display aspect ratio                     : 16:9
Frame rate mode                          : Variable
Frame rate                               : 23.976 fps
Color space                              : YUV
Chroma subsampling                       : 4:2:0
Bit depth                                : 8 bits
Scan type                                : Progressive
Bits/(Pixel*Frame)                       : 0.177
Stream size                              : 811 MiB (69%)
Writing library                          : x264 core 130 r2273
Encoding settings                        : cabac=1 / ref=2 / deblock=1:0:0 / analyse=0x1:0x131 / me=hex / subme=7 / psy=1 / psy_rd=1.00:0.00 / mixed_ref=0 / me_range=16 / chroma_me=1 / trellis=1 / 8x8dct=0 / cqm=0 / deadzone=21,11 / fast_pskip=1 / chroma_qp_offset=-2 / threads=3 / lookahead_threads=1 / sliced_threads=0 / nr=0 / decimate=1 / interlaced=0 / bluray_compat=0 / constrained_intra=0 / bframes=3 / b_pyramid=0 / b_adapt=1 / b_bias=0 / direct=3 / weightb=1 / open_gop=0 / weightp=2 / keyint=230 / keyint_min=23 / scenecut=40 / intra_refresh=0 / rc_lookahead=40 / rc=abr / mbtree=1 / bitrate=1300 / ratetol=1.0 / qcomp=0.60 / qpmin=10 / qpmax=69 / qpstep=4 / vbv_maxrate=24000 / vbv_bufsize=24000 / nal_hrd=none / ip_ratio=1.40 / aq=1:1.00
Language                                 : Italian
Default                                  : Yes
Forced                                   : No

Audio #1
ID                                       : 2
Format                                   : AC-3
Format/Info                              : Audio Coding 3
Mode extension                           : CM (complete main)
Codec ID                                 : A_AC3
Duration                                 : 1h 31mn
Bit rate mode                            : Constant
Bit rate                                 : 256 Kbps
Channel(s)                               : 2 channels
Channel positions                        : Front: L R
Sampling rate                            : 48.0 KHz
Bit depth                                : 16 bits
Compression mode                         : Lossy
Delay relative to video                  : 1mn 5s
Stream size                              : 168 MiB (14%)
Title                                    : AC3 iTA
Language                                 : Italian
Default                                  : No
Forced                                   : No

Audio #2
ID                                       : 3
Format                                   : AC-3
Format/Info                              : Audio Coding 3
Mode extension                           : CM (complete main)
Codec ID                                 : A_AC3
Duration                                 : 1h 31mn
Bit rate mode                            : Constant
Bit rate                                 : 256 Kbps
Channel(s)                               : 2 channels
Channel positions                        : Front: L R
Sampling rate                            : 48.0 KHz
Bit depth                                : 16 bits
Compression mode                         : Lossy
Delay relative to video                  : 1mn 5s
Stream size                              : 168 MiB (14%)
Title                                    : AC3 ENG
Language                                 : Italian
Default                                  : No
Forced                                   : No






Info: Per scaricare devi usare un client come uTorrent o Transmission
AnnounceURL
udp://tracker.coppersurfer.tk:6969/announce
Hash 1156d52b5e29071a10d041ae3112c3a3af63d299
Peers seeds: 80 , leech: 8
Size 1.14 GB
Completato 2630x
Aggiunto 05.02.18 - 14:02:25
Uploader   robbyrs
Votazione (Voti: 0)


Condividi questo bittorrent:


html/blog:


bbcode/forum:




Aggiungi Commento


counter