* Dettagli Torrent   globale  | Commenti (0) 


- L uomo di neve - (2017).720p.H264.italian.english.Ac3-5.1.sub.ita.eng.MIRCrew -


Download via torrent:
Categoria bittorrent BDRip
Descrizione
The Snowman - L'uomo di neve (2017).720p.H264.italian.english.Ac3-5.1.sub.ita.eng.MIRCrew



NO FOUND ONLY ORIGINAL RELEASE





My release is always in double track audio italian and Original audio
for select it use VLC or dvd player home
not use wmp

L'uomo di neve

The Snowman

(2017)


Qualità MIRCrew in HD 720p da 2,2 gb







GENERE: Thriller
ANNO: 2017
REGIA: Tomas Alfredson

PAESE: Gran Bretagna
DURATA: 125 Min
DISTRIBUZIONE: Universal Pictures



Michael Fassbender, Rebecca Ferguson, Charlotte Gainsbourg, Val Kilmer, J.K. Simmons, Chloë Sevigny, Toby Jones, James D'Arcy, Jamie Clayton, Jakob Oftebro, Sofia Helin, Ronan Vibert



Nella città di Oslo quando i primi fiocchi cadono, alcune donne spariscono nel nulla e misteriosi pupazzi di neve compaiono a sorvegliare le strade. L'uomo di neve segue le indagini del detective Harry Hole.........



Detective Harry Hole investigates the disappearance of a woman whose scarf is found wrapped around an ominous-looking snowman.............









[spoiler]
General
Unique ID                                : 195708553156071684626381869480764816962 (0x933C18A66F622759810097246C94BE42)
Complete name                            : L'uomo di neve - The Snowman (2017).720p.H264.italian.english.Ac3-5.1.sub.ita.eng.MIRCrew\L'uomo di neve - The Snowman (2017).720p.H264.italian.english.Ac3-5.1.sub.ita.eng.MIRCrew.mkv
Format                                   : Matroska
Format version                           : Version 2
File size                                : 2.17 GiB
Duration                                 : 1h 59mn
Overall bit rate                         : 2 605 Kbps
Movie name                               : MIRCrew
Encoded date                             : UTC 2018-01-31 14:13:55
Writing application                      : mkvmerge v5.4.0 ('Piper') built on Mar 10 2012 13:34:39
Writing library                          : Lavf54.63.100
COPYRIGHT                                : robbyrs-iCN

Video
ID                                       : 1
Format                                   : AVC
Format/Info                              : Advanced Video Codec
Format profile                           : [email protected]
Format settings, CABAC                   : Yes
Format settings, ReFrames                : 2 frames
Codec ID                                 : V_MPEG4/ISO/AVC
Duration                                 : 1h 59mn
Bit rate                                 : 1 700 Kbps
Width                                    : 1 280 pixels
Height                                   : 688 pixels
Display aspect ratio                     : 16:9
Frame rate mode                          : Variable
Frame rate                               : 23.976 fps
Color space                              : YUV
Chroma subsampling                       : 4:2:0
Bit depth                                : 8 bits
Scan type                                : Progressive
Bits/(Pixel*Frame)                       : 0.081
Stream size                              : 1.38 GiB (64%)
Title                                    : The Snowman - L'uomo di neve (2017).720p.H264.italian.english.Ac3-5.1.sub.ita.eng.MIRCrew
Writing library                          : x264 core 130 r2273
Encoding settings                        : cabac=1 / ref=2 / deblock=1:0:0 / analyse=0x1:0x131 / me=hex / subme=7 / psy=1 / psy_rd=1.00:0.00 / mixed_ref=0 / me_range=16 / chroma_me=1 / trellis=1 / 8x8dct=0 / cqm=0 / deadzone=21,11 / fast_pskip=1 / chroma_qp_offset=-2 / threads=3 / lookahead_threads=1 / sliced_threads=0 / nr=0 / decimate=1 / interlaced=0 / bluray_compat=0 / constrained_intra=0 / bframes=3 / b_pyramid=0 / b_adapt=1 / b_bias=0 / direct=3 / weightb=1 / open_gop=0 / weightp=2 / keyint=230 / keyint_min=23 / scenecut=40 / intra_refresh=0 / rc_lookahead=40 / rc=abr / mbtree=1 / bitrate=1700 / ratetol=1.0 / qcomp=0.60 / qpmin=10 / qpmax=69 / qpstep=4 / vbv_maxrate=24000 / vbv_bufsize=24000 / nal_hrd=none / ip_ratio=1.40 / aq=1:1.00
Language                                 : Italian
Default                                  : Yes
Forced                                   : No
DURATION                                 : 01:59:15.148000000
NUMBER_OF_FRAMES                         : 171552
NUMBER_OF_BYTES                          : 9206600070
_STATISTICS_WRITING_APP                  : mkvmerge v7.2.0 ('On Every Street') 64bit built on Sep 13 2014 15:52:10
_STATISTICS_WRITING_DATE_UTC             : 2018-01-31 14:13:55
_STATISTICS_TAGS                         : BPS DURATION NUMBER_OF_FRAMES NUMBER_OF_BYTES

Audio #1
ID                                       : 2
Format                                   : AC-3
Format/Info                              : Audio Coding 3
Mode extension                           : CM (complete main)
Codec ID                                 : A_AC3
Duration                                 : 1h 59mn
Bit rate mode                            : Constant
Bit rate                                 : 448 Kbps
Channel(s)                               : 6 channels
Channel positions                        : Front: L C R, Side: L R, LFE
Sampling rate                            : 48.0 KHz
Bit depth                                : 16 bits
Compression mode                         : Lossy
Delay relative to video                  : -42ms
Stream size                              : 382 MiB (17%)
Title                                    : Ita Ac3 5.1
Language                                 : Italian
Default                                  : Yes
Forced                                   : No

Audio #2
ID                                       : 3
Format                                   : AC-3
Format/Info                              : Audio Coding 3
Mode extension                           : CM (complete main)
Codec ID                                 : A_AC3
Duration                                 : 1h 59mn
Bit rate mode                            : Constant
Bit rate                                 : 448 Kbps
Channel(s)                               : 6 channels
Channel positions                        : Front: L C R, Side: L R, LFE
Sampling rate                            : 48.0 KHz
Bit depth                                : 16 bits
Compression mode                         : Lossy
Delay relative to video                  : -42ms
Stream size                              : 382 MiB (17%)
Title                                    : Eng Ac3 5.1
Language                                 : English
Default                                  : No
Forced                                   : No

Menu
00:00:00.000                             : :00:00:00.000
00:06:23.008                             : :00:06:23.008
00:13:43.072                             : :00:13:43.072
00:20:05.663                             : :00:20:05.663
00:24:21.377                             : :00:24:21.377
00:29:25.263                             : :00:29:25.263
00:33:09.321                             : :00:33:09.321
00:42:17.285                             : :00:42:17.285
00:50:44.124                             : :00:50:44.124
00:55:33.747                             : :00:55:33.747
01:02:19.903                             : :01:02:19.903
01:08:06.457                             : :01:08:06.457
01:12:24.215                             : :01:12:24.215
01:17:31.397                             : :01:17:31.397
01:23:55.489                             : :01:23:55.489
01:29:06.883                             : :01:29:06.883
01:35:45.323                             : :01:35:45.323
01:42:39.028                             : :01:42:39.028
01:50:33.752                             : :01:50:33.752
01:54:23.982                             : :01:54:23.982



Info: Per scaricare devi usare un client come uTorrent o Transmission
AnnounceURL
udp://tracker.coppersurfer.tk:6969/announce
Hash 1890ac502ecc3f4bc9115f7e61f4e56adf3b6b85
Peers seeds: 291 , leech: 42
Size 2.17 GB
Completato 10083x
Aggiunto 05.02.18 - 00:02:46
Uploader   robbyrs
Votazione (Voti: 0)


Condividi questo bittorrent:


html/blog:


bbcode/forum:




Aggiungi Commento


counter