* Dettagli Torrent   globale  | Commenti (2) 


- La fratellanza - Shot Caller (2017).720p.H264.italian.english.Ac3-5.1.sub.ita.eng.spa.MIRCrew -


Download via torrent:
Categoria bittorrent BDRip
Descrizione
La fratellanza - Shot Caller (2017).720p.H264.italian.english.Ac3-5.1.sub.ita.eng.spa.MIRCrew


NO FOUND ONLY ORIGINAL RELEASE





My release is always in double track audio italian and Original audio
for select it use VLC or dvd player home
not use wmp

La fratellanza

Shot Caller

(2017)


Qualità MIRCrew in HD 720p da 2.2 gb







GENERE: Drammatico, Thriller
ANNO: 2017
REGIA: Ric Roman Waugh

PAESE: USA
DURATA: 121 Min
DISTRIBUZIONE: Notorious Pictures



Nikolaj Coster-Waldau, Jon Bernthal, Lake Bell, Emory Cohen, Jeffrey Donovan, Benjamin Bratt, Jessy Schram, Omari Hardwick, Holt McCallany, Juan Pablo Raba



La star di Game of Thrones, Nikolaj Coster-Waldau, è l'impetuoso protagonista del thriller La fratellanza. Finito in prigione per aver causato accidentalmente la morte di un amico in un incidente d'auto, Jacob "Money" Harlon (Coster-Waldau) lotta per sopravvivere ai pericoli della detenzione e alle ostilità tra gang rivali.



A newly released prisoner is forced by the leaders of his gang to orchestrate a major crime with a brutal rival gang on the streets of Southern California. .............










General
Unique ID                                : 142313575860052892668448079108348868733 (0x6B109904738252F646BB77EF86D8787D)
Complete name                            : La fratellanza - Shot Caller (2017).720p.H264.ita.eng.multisub-MIRCrew\La fratellanza - Shot Caller (2017).720p.h264.ita.eng.multisub-MIRCrew.mkv
Format                                   : Matroska
Format version                           : Version 2
File size                                : 2.18 GiB
Duration                                 : 2h 0mn
Overall bit rate                         : 2 577 Kbps
Movie name                               : MIRCrew
Encoded date                             : UTC 2018-02-01 15:35:33
Writing application                      : Lavf54.63.100
Writing library                          : Lavf54.63.100
COPYRIGHT                                : robbyrs-iCN

Video
ID                                       : 1
Format                                   : AVC
Format/Info                              : Advanced Video Codec
Format profile                           : [email protected]
Format settings, CABAC                   : Yes
Format settings, ReFrames                : 2 frames
Codec ID                                 : V_MPEG4/ISO/AVC
Duration                                 : 2h 0mn
Bit rate                                 : 1 700 Kbps
Width                                    : 1 280 pixels
Height                                   : 528 pixels
Display aspect ratio                     : 2.40:1
Frame rate mode                          : Variable
Frame rate                               : 24.000 fps
Color space                              : YUV
Chroma subsampling                       : 4:2:0
Bit depth                                : 8 bits
Scan type                                : Progressive
Bits/(Pixel*Frame)                       : 0.105
Stream size                              : 1.38 GiB (63%)
Writing library                          : x264 core 130 r2273
Encoding settings                        : cabac=1 / ref=2 / deblock=1:0:0 / analyse=0x1:0x131 / me=hex / subme=7 / psy=1 / psy_rd=1.00:0.00 / mixed_ref=0 / me_range=16 / chroma_me=1 / trellis=1 / 8x8dct=0 / cqm=0 / deadzone=21,11 / fast_pskip=1 / chroma_qp_offset=-2 / threads=3 / lookahead_threads=1 / sliced_threads=0 / nr=0 / decimate=1 / interlaced=0 / bluray_compat=0 / constrained_intra=0 / bframes=3 / b_pyramid=0 / b_adapt=1 / b_bias=0 / direct=3 / weightb=1 / open_gop=0 / weightp=2 / keyint=240 / keyint_min=24 / scenecut=40 / intra_refresh=0 / rc_lookahead=40 / rc=abr / mbtree=1 / bitrate=1700 / ratetol=1.0 / qcomp=0.60 / qpmin=10 / qpmax=69 / qpstep=4 / vbv_maxrate=24000 / vbv_bufsize=24000 / nal_hrd=none / ip_ratio=1.40 / aq=1:1.00
Default                                  : Yes
Forced                                   : No
DURATION                                 : 02:00:58.250000000
NUMBER_OF_FRAMES                         : 174198
NUMBER_OF_BYTES                          : 7759594108
_STATISTICS_WRITING_APP                  : mkvmerge v9.7.1 ('Pandemonium') 64bit
_STATISTICS_WRITING_DATE_UTC             : 2018-01-26 11:35:12
_STATISTICS_TAGS                         : BPS DURATION NUMBER_OF_FRAMES NUMBER_OF_BYTES

Audio #1
ID                                       : 2
Format                                   : AC-3
Format/Info                              : Audio Coding 3
Mode extension                           : CM (complete main)
Codec ID                                 : A_AC3
Duration                                 : 2h 0mn
Bit rate mode                            : Constant
Bit rate                                 : 448 Kbps
Channel(s)                               : 6 channels
Channel positions                        : Front: L C R, Side: L R, LFE
Sampling rate                            : 48.0 KHz
Bit depth                                : 16 bits
Compression mode                         : Lossy
Delay relative to video                  : 1mn 5s
Stream size                              : 388 MiB (17%)
Language                                 : Italian
Default                                  : No
Forced                                   : No
DURATION                                 : 02:00:58.976000000
NUMBER_OF_FRAMES                         : 226843
NUMBER_OF_BYTES                          : 580718080
_STATISTICS_WRITING_APP                  : mkvmerge v9.7.1 ('Pandemonium') 64bit
_STATISTICS_WRITING_DATE_UTC             : 2018-01-26 11:35:12
_STATISTICS_TAGS                         : BPS DURATION NUMBER_OF_FRAMES NUMBER_OF_BYTES

Audio #2
ID                                       : 3
Format                                   : AC-3
Format/Info                              : Audio Coding 3
Mode extension                           : CM (complete main)
Codec ID                                 : A_AC3
Duration                                 : 2h 0mn
Bit rate mode                            : Constant
Bit rate                                 : 448 Kbps
Channel(s)                               : 6 channels
Channel positions                        : Front: L C R, Side: L R, LFE
Sampling rate                            : 48.0 KHz
Bit depth                                : 16 bits
Compression mode                         : Lossy
Delay relative to video                  : 1mn 5s
Stream size                              : 388 MiB (17%)
Language                                 : English
Default                                  : No
Forced                                   : No
DURATION                                 : 02:00:58.987000000
NUMBER_OF_FRAMES                         : 680530
NUMBER_OF_BYTES                          : 1369226428
_STATISTICS_WRITING_APP                  : mkvmerge v9.7.1 ('Pandemonium') 64bit
_STATISTICS_WRITING_DATE_UTC             : 2018-01-26 11:35:12
_STATISTICS_TAGS                         : BPS DURATION NUMBER_OF_FRAMES NUMBER_OF_BYTES

Menu
00:00:00.000                             : 01)00:00:00:000
00:04:44.083                             : 02)00:04:44:083
00:09:48.833                             : 03)00:09:48:833
00:15:36.375                             : 04)00:15:36:375
00:22:04.458                             : 05)00:22:04:458
00:27:50.666                             : 06)00:27:50:666
00:33:28.416                             : 07)00:33:28:416
00:38:53.000                             : 000:38:53:000
00:44:46.208                             : 09)00:44:46:208
00:51:11.125                             : 10)00:51:11:125
00:58:04.041                             : 11)00:58:04:041
01:03:23.958                             : 12)01:03:23:958
01:10:35.250                             : 13)01:10:35:250
01:16:04.875                             : 14)01:16:04:875
01:22:36.708                             : 15)01:22:36:708
01:28:21.416                             : 16)01:28:21:416
01:33:23.833                             : 17)01:33:23:833
01:38:04.625                             : 101:38:04:625
01:45:42.458                             : 19)01:45:42:458
01:54:15.333                             : 20)01:54:15:333






Info: Per scaricare devi usare un client come uTorrent o Transmission
AnnounceURL
udp://tracker.coppersurfer.tk:6969/announce
Hash 25a782db8086fd43277ced3e5faffe52e74b06ab
Peers seeds: 138 , leech: 30
Size 2.18 GB
Completato 5277x
Aggiunto 03.02.18 - 17:02:01
Uploader   robbyrs
Votazione (Voti: 3)


Condividi questo bittorrent:


html/blog:


bbcode/forum:




Aggiungi Commento
Ultimi commenti
  
Perfetto grazie
24/04 15.57
  
Grazie!
05/02 12.11
Tutti commenti (2)


counter