* Dettagli Torrent   globale  | Commenti (0) 


- La battaglia dei demoni - Sadako vs Kayako (2016).720p.H264.italian.jpn.Ac3.sub.eng.spa.MIRCrew -


Download via torrent:
Categoria bittorrent BDRip
Descrizione
La battaglia dei demoni - Sadako vs Kayako (2016).720p.H264.italian.jpn.Ac3.sub.eng.spa.MIRCrew




NO FOUND ONLY ORIGINAL RELEASE



My release is always in double track audio italian and Original audio
for select it use VLC or dvd player home
not use wmp

La battaglia dei demoni

Sadako vs Kayako

(2016)


Quality MIRCrew  HD 720p on 1,62 gb

ENGLISH and SPANISH SUBTITLE INSIDE







Titolo originale Sadako VS Kayako
Paese di produzione Giappone
Anno 2016
Durata 98 min
Genere horror
Regia Koji Shiraishi
Sceneggiatura Koji Shiraishi
Casa di produzione Kadokawa, NBCUniversal Entertainment



   Mizuki Yamamoto: Yuri Kurahashi
   Tina Tamashiro: Suzuka Takagi
   Masahiro Komoto: Shinichi Morishige
   Aimi Satsukawa: Natsumi
   Masanobu Ando: Keizo
   Misato Tanaka: Fumiko Takagi



Una ragazza, Yuri Kurahashi, dopo aver guardato la videocassetta maledetta di Sadako Yamamura nella casa infestata da Kayako Saeki rimane coinvolta in uno scontro tra i due spiriti. ..........



The vengeful spirits of the Ring and Grudge series face off.











[spoiler]
General
Unique ID                                : 250380112923151017117511475280130376737 (0xBC5D74A87A744C8AB6EEF50467E48421)
Complete name                            : La battaglia dei demoni - Sadako vs Kayako (2016).720p.ita.Jpn.sub.eng.spa-MIRCrew\La battaglia dei demoni - Sadako vs Kayako (2016).720p.ita.Jpn.sub.eng.spa-MIRCrew.mkv
Format                                   : Matroska
Format version                           : Version 2
File size                                : 1.62 GiB
Duration                                 : 1h 38mn
Overall bit rate                         : 2 356 Kbps
Movie name                               : MIRCrew
Encoded date                             : UTC 2018-01-31T10:52:56Z
Writing application                      : mkvmerge v5.4.0 ('Piper') built on Mar 10 2012 13:34:39
Writing library                          : Lavf55.12.0

Video
ID                                       : 1
Format                                   : AVC
Format/Info                              : Advanced Video Codec
Format profile                           : [email protected]
Format settings, CABAC                   : Yes
Format settings, ReFrames                : 4 frames
Codec ID                                 : V_MPEG4/ISO/AVC
Duration                                 : 1h 38mn
Bit rate                                 : 1 700 Kbps
Width                                    : 1 280 pixels
Height                                   : 528 pixels
Display aspect ratio                     : 2.40:1
Frame rate mode                          : Variable
Frame rate                               : 24.000 fps
Color space                              : YUV
Chroma subsampling                       : 4:2:0
Bit depth                                : 8 bits
Scan type                                : Progressive
Bits/(Pixel*Frame)                       : 0.105
Stream size                              : 1.15 GiB (71%)
Title                                    : MIRCrew
Writing library                          : x264 core 142 r2479 dd79a61
Encoding settings                        : cabac=1 / ref=3 / deblock=1:0:0 / analyse=0x3:0x113 / me=hex / subme=7 / psy=1 / psy_rd=1.00:0.00 / mixed_ref=1 / me_range=16 / chroma_me=1 / trellis=1 / 8x8dct=1 / cqm=0 / deadzone=21,11 / fast_pskip=1 / chroma_qp_offset=-2 / threads=3 / lookahead_threads=1 / sliced_threads=0 / nr=0 / decimate=1 / interlaced=0 / bluray_compat=0 / constrained_intra=0 / bframes=3 / b_pyramid=2 / b_adapt=1 / b_bias=0 / direct=1 / weightb=1 / open_gop=0 / weightp=2 / keyint=240 / keyint_min=24 / scenecut=40 / intra_refresh=0 / rc_lookahead=40 / rc=abr / mbtree=1 / bitrate=1700 / ratetol=1.0 / qcomp=0.60 / qpmin=0 / qpmax=69 / qpstep=4 / vbv_maxrate=62500 / vbv_bufsize=78125 / nal_hrd=none / filler=0 / ip_ratio=1.40 / aq=1:1.00
Language                                 : Italian
Default                                  : Yes
Forced                                   : No
Color primaries                          : BT.709-5, BT.1361, IEC 61966-2-4, SMPTE RP177
Transfer characteristics                 : BT.709-5, BT.1361
Matrix coefficients                      : BT.709-5, BT.1361, IEC 61966-2-4 709, SMPTE RP177

Audio #1
ID                                       : 2
Format                                   : AC-3
Format/Info                              : Audio Coding 3
Mode extension                           : CM (complete main)
Codec ID                                 : A_AC3
Duration                                 : 1h 38mn
Bit rate mode                            : Constant
Bit rate                                 : 192 Kbps
Channel(s)                               : 2 channels
Channel positions                        : Front: L R
Sampling rate                            : 48.0 KHz
Bit depth                                : 16 bits
Compression mode                         : Lossy
Delay relative to video                  : -83ms
Stream size                              : 136 MiB (8%)
Title                                    : Ita Ac3 2.0
Language                                 : Italian
Default                                  : Yes
Forced                                   : No

Audio #2
ID                                       : 3
Format                                   : AC-3
Format/Info                              : Audio Coding 3
Mode extension                           : CM (complete main)
Codec ID                                 : A_AC3
Duration                                 : 1h 38mn
Bit rate mode                            : Constant
Bit rate                                 : 448 Kbps
Channel(s)                               : 2 channels
Channel positions                        : Front: L R
Sampling rate                            : 48.0 KHz
Bit depth                                : 16 bits
Compression mode                         : Lossy
Delay relative to video                  : -83ms
Stream size                              : 316 MiB (19%)
Title                                    : Jpn Ac3 2.0
Language                                 : Japanese
Default                                  : No
Forced                                   : No



Info: Per scaricare devi usare un client come uTorrent o Transmission
AnnounceURL
udp://tracker.coppersurfer.tk:6969/announce
Hash 3d715aeeee6e888b0159563bbea78af9decec684
Peers seeds: 45 , leech: 10
Size 1.62 GB
Completato 1413x
Aggiunto 02.02.18 - 11:02:54
Uploader   robbyrs
Votazione (Voti: 1)


Condividi questo bittorrent:


html/blog:


bbcode/forum:




Aggiungi Commento


counter