* Dettagli Torrent   globale  | Commenti (0) 


- Come ti ammazzo il bodyguard (2017).720p.H264.italian.english.Ac3-5.1.sub.ita.eng.spa.MIRCrew -


Download via torrent:
Categoria bittorrent BDRip
Descrizione
The Hitman's Bodyguard - Come ti ammazzo il bodyguard (2017)720p.H264.italian.english.Ac3-5.1.sub.ita.eng.spa.MIRCrew


NO FOUND ONLY ORIGINAL RELEASE





My release is always in double track audio italian and Original audio
for select it use VLC or dvd player home
not use wmp

Come ti ammazzo il bodyguard
The Hitman's Bodyguard
(2017)


Hight quality MIRCrew  HD 720p on 2.14 GiB







GENERE: Azione, Commedia
ANNO: 2017
REGIA: Patrick Hughes

PAESE: USA
DURATA: 118 Min
DISTRIBUZIONE: Eagle Pictures



Ryan Reynolds, Samuel L. Jackson, Salma Hayek, Elodie Yung, Kirsty Mitchell, Joaquim de Almeida, Sam Hazeldine, Joséphine de La Baume, Ori Pfeffer



In Come ti ammazzo il bodyguard, Michael Bryce (Ryan Reynolds), una delle migliori guardie del corpo su piazza, è caduto in disgrazia a causa di un tragico incidente "sul lavoro": due anni prima un cliente giapponese è morto sotto la sua protezione e da allora Bryce non ha più accettato missioni e incarichi ad alto rischio. ...........



The world's top bodyguard gets a new client, a hit man who must testify at the International Criminal Court. They must put their differences aside and work together to make it to the trial on time. ...........










General
Unique ID                                : 214999456585511222804312978298116511568 (0xA1BF639F1AEB40D0D0438815E5741750)
Complete name                            : Come ti ammazzo il bodyguard - The Hitman's Bodyguard (2017).720p.H264.ita.eng.sub.ita.eng-MIRCrew\Come ti ammazzo il bodyguard - The Hitman's Bodyguard (2017).720p.H264.ita.eng.sub.ita.eng-MIRCrew.mkv
Format                                   : Matroska
Format version                           : Version 2
File size                                : 2.14 GiB
Duration                                 : 1h 58mn
Overall bit rate                         : 2 581 Kbps
Movie name                               : MIRCrew
Encoded date                             : UTC 2018-01-31 10:34:25
Writing application                      : Lavf54.63.100
Writing library                          : Lavf54.63.100
COPYRIGHT                                : robbyrs-iCN

Video
ID                                       : 1
Format                                   : AVC
Format/Info                              : Advanced Video Codec
Format profile                           : [email protected]
Format settings, CABAC                   : Yes
Format settings, ReFrames                : 2 frames
Codec ID                                 : V_MPEG4/ISO/AVC
Duration                                 : 1h 58mn
Bit rate                                 : 1 700 Kbps
Width                                    : 1 280 pixels
Height                                   : 528 pixels
Display aspect ratio                     : 2.40:1
Frame rate mode                          : Variable
Frame rate                               : 23.976 fps
Color space                              : YUV
Chroma subsampling                       : 4:2:0
Bit depth                                : 8 bits
Scan type                                : Progressive
Bits/(Pixel*Frame)                       : 0.105
Stream size                              : 1.35 GiB (63%)
Writing library                          : x264 core 130 r2273
Encoding settings                        : cabac=1 / ref=2 / deblock=1:0:0 / analyse=0x1:0x131 / me=hex / subme=7 / psy=1 / psy_rd=1.00:0.00 / mixed_ref=0 / me_range=16 / chroma_me=1 / trellis=1 / 8x8dct=0 / cqm=0 / deadzone=21,11 / fast_pskip=1 / chroma_qp_offset=-2 / threads=3 / lookahead_threads=1 / sliced_threads=0 / nr=0 / decimate=1 / interlaced=0 / bluray_compat=0 / constrained_intra=0 / bframes=3 / b_pyramid=0 / b_adapt=1 / b_bias=0 / direct=3 / weightb=1 / open_gop=0 / weightp=2 / keyint=230 / keyint_min=23 / scenecut=40 / intra_refresh=0 / rc_lookahead=40 / rc=abr / mbtree=1 / bitrate=1700 / ratetol=1.0 / qcomp=0.60 / qpmin=10 / qpmax=69 / qpstep=4 / vbv_maxrate=24000 / vbv_bufsize=24000 / nal_hrd=none / ip_ratio=1.40 / aq=1:1.00
Language                                 : Italian
Default                                  : Yes
Forced                                   : No
DURATION                                 : 01:58:18.508000000
NUMBER_OF_FRAMES                         : 170194
NUMBER_OF_BYTES                          : 8582216811
_STATISTICS_WRITING_APP                  : mkvmerge v15.0.0 ('Duel with the Devil') 64-bit
_STATISTICS_WRITING_DATE_UTC             : 2018-01-26 15:48:49
_STATISTICS_TAGS                         : BPS DURATION NUMBER_OF_FRAMES NUMBER_OF_BYTES

Audio #1
ID                                       : 2
Format                                   : AC-3
Format/Info                              : Audio Coding 3
Mode extension                           : CM (complete main)
Codec ID                                 : A_AC3
Duration                                 : 1h 58mn
Bit rate mode                            : Constant
Bit rate                                 : 448 Kbps
Channel(s)                               : 6 channels
Channel positions                        : Front: L C R, Side: L R, LFE
Sampling rate                            : 48.0 KHz
Bit depth                                : 16 bits
Compression mode                         : Lossy
Delay relative to video                  : 1mn 5s
Stream size                              : 380 MiB (17%)
Language                                 : Italian
Default                                  : No
Forced                                   : No
DURATION                                 : 01:58:31.040000000
NUMBER_OF_FRAMES                         : 222220
NUMBER_OF_BYTES                          : 568883200
_STATISTICS_WRITING_APP                  : mkvmerge v15.0.0 ('Duel with the Devil') 64-bit
_STATISTICS_WRITING_DATE_UTC             : 2018-01-26 15:48:49
_STATISTICS_TAGS                         : BPS DURATION NUMBER_OF_FRAMES NUMBER_OF_BYTES

Audio #2
ID                                       : 3
Format                                   : AC-3
Format/Info                              : Audio Coding 3
Mode extension                           : CM (complete main)
Codec ID                                 : A_AC3
Duration                                 : 1h 58mn
Bit rate mode                            : Constant
Bit rate                                 : 448 Kbps
Channel(s)                               : 6 channels
Channel positions                        : Front: L C R, Side: L R, LFE
Sampling rate                            : 48.0 KHz
Bit depth                                : 16 bits
Compression mode                         : Lossy
Delay relative to video                  : 1mn 5s
Stream size                              : 380 MiB (17%)
Language                                 : English
Default                                  : No
Forced                                   : No
DURATION                                 : 01:58:18.368000000
NUMBER_OF_FRAMES                         : 221824
NUMBER_OF_BYTES                          : 567869440
_STATISTICS_WRITING_APP                  : mkvmerge v15.0.0 ('Duel with the Devil') 64-bit
_STATISTICS_WRITING_DATE_UTC             : 2018-01-26 15:48:49
_STATISTICS_TAGS                         : BPS DURATION NUMBER_OF_FRAMES NUMBER_OF_BYTES

Menu
00:00:00.000                             : :00:00:00.000
00:18:39.994                             : :00:18:39.994
00:37:00.885                             : :00:37:00.885
00:51:42.391                             : :00:51:42.391
01:03:32.809                             : :01:03:32.809
01:20:06.677                             : :01:20:06.677
01:35:08.870                             : :01:35:08.870
01:51:25.220                             : :01:51:25.220







Info: Per scaricare devi usare un client come uTorrent o Transmission
AnnounceURL
udp://tracker.coppersurfer.tk:6969/announce
Hash 9111d8488b70f5665d1fc3ad0aa90080928c2b7a
Peers seeds: 195 , leech: 24
Size 2.14 GB
Completato 8654x
Aggiunto 01.02.18 - 19:02:34
Uploader   robbyrs
Votazione (Voti: 1)


Condividi questo bittorrent:


html/blog:


bbcode/forum:




Aggiungi Commento


counter