* Dettagli Torrent   globale  | Commenti (0) 


- Flatliners - Linea mortale (2017).720p.H264.italian.english.Ac3-5.1.sub.ita.eng.MIRCrew -


Download via torrent:
Categoria bittorrent BDRip
Descrizione
Flatliners - Linea  mortale (2017).720p.H264.italian.english.Ac3-5.1.sub.ita.eng.MIRCrew





NO FOUND ONLY ORIGINAL RELEASE



My release is always in double track audio italian and Original audio
for select it use VLC or dvd player home
not use wmp

Flatliners

Linea  mortale

(2017)








REGIA: Niels Arden Oplev

PAESE: USA
DURATA: 110 Min
DISTRIBUZIONE: Warner Br



Nina Dobrev, Ellen Page, Diego Luna, Kiefer Sutherland, James Norton, Kiersey Clemons, Beau Mirchoff, Charlotte McKinney, Steve Byers



Cinque studenti di medicina, decisi a svelare i misteri della morte e dell'aldilà mediante un esperimento avventato, vivono in prima persona un'angosciante esperienza di premorte. Flatliners - Linea mortale segue le vicende della visionaria studentessa Courtney...............



Five medical students, obsessed by what lies beyond the confines of life, embark on a daring experiment: by stopping their hearts for short periods, each triggers a near-death experience - giving them a firsthand account of the afterlife..............










General
Unique ID                                : 209086952461425209485896753034844842055 (0x9D4CAEA96AFF7B7AAA223DC13F422847)
Complete name                            : C:\Users\robby\Desktop\Flatliners - Linea  mortale (2017).720p.ita.eng.sub.ita.eng-MIRCrew\Flatliners - Linea  mortale (2017).720p.ita.eng.sub.ita.eng-MIRCrew.mkv
Format                                   : Matroska
Format version                           : Version 2
File size                                : 1.98 GiB
Duration                                 : 1h 49mn
Overall bit rate                         : 2 579 Kbps
Movie name                               : MIRCrew
Encoded date                             : UTC 2018-01-28T16:07:33Z
Writing application                      : mkvmerge v5.4.0 ('Piper') built on Mar 10 2012 13:34:39
Writing library                          : Lavf55.12.0

Video
ID                                       : 1
Format                                   : AVC
Format/Info                              : Advanced Video Codec
Format profile                           : [email protected]
Format settings, CABAC                   : Yes
Format settings, ReFrames                : 4 frames
Codec ID                                 : V_MPEG4/ISO/AVC
Duration                                 : 1h 49mn
Bit rate                                 : 1 700 Kbps
Width                                    : 1 280 pixels
Height                                   : 544 pixels
Display aspect ratio                     : 2.35:1
Frame rate                               : 23.976 fps
Color space                              : YUV
Chroma subsampling                       : 4:2:0
Bit depth                                : 8 bits
Scan type                                : Progressive
Bits/(Pixel*Frame)                       : 0.102
Stream size                              : 1.25 GiB (63%)
Title                                    : Flatliners - Linea  mortale (2017).720p.ita.eng.sub.ita.eng-MIRCrew
Writing library                          : x264 core 142 r2479 dd79a61
Encoding settings                        : cabac=1 / ref=3 / deblock=1:0:0 / analyse=0x3:0x113 / me=hex / subme=7 / psy=1 / psy_rd=1.00:0.00 / mixed_ref=1 / me_range=16 / chroma_me=1 / trellis=1 / 8x8dct=1 / cqm=0 / deadzone=21,11 / fast_pskip=1 / chroma_qp_offset=-2 / threads=3 / lookahead_threads=1 / sliced_threads=0 / nr=0 / decimate=1 / interlaced=0 / bluray_compat=0 / constrained_intra=0 / bframes=3 / b_pyramid=2 / b_adapt=1 / b_bias=0 / direct=1 / weightb=1 / open_gop=0 / weightp=2 / keyint=240 / keyint_min=24 / scenecut=40 / intra_refresh=0 / rc_lookahead=40 / rc=abr / mbtree=1 / bitrate=1700 / ratetol=1.0 / qcomp=0.60 / qpmin=0 / qpmax=69 / qpstep=4 / vbv_maxrate=62500 / vbv_bufsize=78125 / nal_hrd=none / filler=0 / ip_ratio=1.40 / aq=1:1.00
Language                                 : Italian
Default                                  : Yes
Forced                                   : No
Color primaries                          : BT.709-5, BT.1361, IEC 61966-2-4, SMPTE RP177
Transfer characteristics                 : BT.709-5, BT.1361
Matrix coefficients                      : BT.709-5, BT.1361, IEC 61966-2-4 709, SMPTE RP177

Audio #1
ID                                       : 2
Format                                   : AC-3
Format/Info                              : Audio Coding 3
Mode extension                           : CM (complete main)
Codec ID                                 : A_AC3
Duration                                 : 1h 49mn
Bit rate mode                            : Constant
Bit rate                                 : 448 Kbps
Channel(s)                               : 6 channels
Channel positions                        : Front: L C R, Side: L R, LFE
Sampling rate                            : 48.0 KHz
Bit depth                                : 16 bits
Compression mode                         : Lossy
Delay relative to video                  : -83ms
Stream size                              : 352 MiB (17%)
Title                                    : Ita Ac3 5.1 448kb
Language                                 : Italian
Default                                  : Yes
Forced                                   : No

Audio #2
ID                                       : 3
Format                                   : AC-3
Format/Info                              : Audio Coding 3
Mode extension                           : CM (complete main)
Codec ID                                 : A_AC3
Duration                                 : 1h 49mn
Bit rate mode                            : Constant
Bit rate                                 : 448 Kbps
Channel(s)                               : 6 channels
Channel positions                        : Front: L C R, Side: L R, LFE
Sampling rate                            : 48.0 KHz
Bit depth                                : 16 bits
Compression mode                         : Lossy
Delay relative to video                  : -83ms
Stream size                              : 352 MiB (17%)
Title                                    : Eng Ac3 5.1 448kb
Language                                 : English
Default                                  : No
Forced                                   : No

Menu
00:00:00.000                             : 01)00:00:00:000
00:05:48.681                             : 02)00:05:48:556
00:11:21.180                             : 03)00:11:21:097
00:18:01.288                             : 04)00:18:01:205
00:26:41.683                             : 05)00:26:41:600
00:35:10.858                             : 06)00:35:10:733
00:42:31.465                             : 07)00:42:31:382
00:48:11.054                             : 000:48:10:971
00:55:32.746                             : 09)00:55:32:620
01:03:50.118                             : 10)01:03:49:992
01:09:43.345                             : 11)01:09:43:262
01:16:20.993                             : 12)01:16:20:867
01:24:18.094                             : 13)01:24:18:011
01:30:00.269                             : 14)01:30:00:186
01:36:06.177                             : 15)01:36:06:093
01:41:54.817                             : 16)01:41:54:691



Info: Per scaricare devi usare un client come uTorrent o Transmission
AnnounceURL
udp://tracker.coppersurfer.tk:6969/announce
Hash b2eea789dba0137602e74c4b23e4266fe70ba68e
Peers seeds: 124 , leech: 19
Size 1.98 GB
Completato 3989x
Aggiunto 29.01.18 - 16:01:38
Uploader   robbyrs
Votazione (Voti: 2)


Condividi questo bittorrent:


html/blog:


bbcode/forum:




Aggiungi Commento


counter