* Dettagli Torrent   globale  | Commenti (0) 


- Little Miss Sunshine (2006).italian.english.Ac3-5.1.sub.ita.eng.spa.MIRCrew -


Download via torrent:
Categoria bittorrent BDRip
Descrizione
Little Miss Sunshine (2006).italian.english.Ac3-5.1.sub.ita.eng.spa.MIRCrew


NO FOUND ONLY ORIGINAL RELEASE



My release is always in double track audio italian and Original audio
for select it use VLC or dvd player home
not use wmp

Little Miss Sunshine

(2006)








Titolo originale Little Miss Sunshine
Paese di produzione USA
Anno 2006
Durata 101 min
Rapporto 2.35:1
Genere commedia, drammatico
Regia Jonathan Dayton e Valerie Faris
Sceneggiatura Michael Arndt
Casa di produzione Big Beach Films, Third Gear Productions LLC, Deep River Productions, Bona Fide Productions
Distribuzione (Italia) 20th Century Fox
Fotografia Tim Suhrstedt
Montaggio Pamela Martin
Musiche Mychael Danna (compositore), DeVotchka (interprete principale)



   Greg Kinnear: Richard Hoover
   Toni Collette: Sheryl Hoover
   Steve Carell: Frank Ginsberg
   Alan Arkin: Edwin Hoover
   Abigail Breslin: Olive Hoover
   Paul Dano: Dwayne Hoover
   Bryan Cranston: Stan Grossman
   Dean Norris: Agente McCleary
   Wallace Langham: Kirby
   Beth Grant: Giudice ufficiale Jenkins
   Mary Lynn Rajskub: Giudice assistente Pam
   Matt Winston: Presentatore del concorso
   Jill Talley: Cindy
   Julio Oscar Mechoso: Meccanico
   Justin Shilton: Josh



Il padre Richard tiene conferenze pressoché deserte sui cosiddetti nove passi per raggiungere il successo e spera di pubblicare un saggio grazie all'aiuto di un amico editore che ha promesso di occuparsene. Richard è particolarmente attento alle tematiche della volontà e del successo e si pone come leader motivazionale per tutta la famiglia. ............



In Albuquerque, Sheryl Hoover brings her suicidal brother Frank to the breast of her dysfunctional and emotionally bankrupted family. Frank is homosexual, an expert in Proust. He tried to commit suicide when he was rejected by his boyfriend and his great competitor became renowned and recognized as number one in the field of Proust...............












General
Complete name                            : Little Miss Sunshine (2006).ita.eng.multisub.MIRCrew\Little Miss Sunshine (2006) .ita.eng.multisub.MIRCrew.avi
Format                                   : AVI
Format/Info                              : Audio Video Interleave
File size                                : 1.72 GiB
Duration                                 : 1h 42mn
Overall bit rate                         : 2 412 Kbps
Writing application                      : VirtualDubMod 1.5.10.2 (build 2540/release)
Writing library                          : VirtualDubMod build 2540/release

Video
ID                                       : 0
Format                                   : MPEG-4 Visual
Format profile                           : [email protected]
Format settings, BVOP                    : Yes
Format settings, QPel                    : No
Format settings, GMC                     : No warppoints
Format settings, Matrix                  : Default (H.263)
Codec ID                                 : XVID
Codec ID/Hint                            : XviD
Duration                                 : 1h 42mn
Bit rate                                 : 1 502 Kbps
Width                                    : 720 pixels
Height                                   : 304 pixels
Display aspect ratio                     : 2.35:1
Frame rate                               : 23.976 fps
Color space                              : YUV
Chroma subsampling                       : 4:2:0
Bit depth                                : 8 bits
Scan type                                : Progressive
Compression mode                         : Lossy
Bits/(Pixel*Frame)                       : 0.286
Stream size                              : 1.07 GiB (62%)

Audio #1
ID                                       : 1
Format                                   : AC-3
Format/Info                              : Audio Coding 3
Mode extension                           : CM (complete main)
Codec ID                                 : 2000
Duration                                 : 1h 42mn
Bit rate mode                            : Constant
Bit rate                                 : 448 Kbps
Channel(s)                               : 6 channels
Channel positions                        : Front: L C R, Side: L R, LFE
Sampling rate                            : 48.0 KHz
Bit depth                                : 16 bits
Compression mode                         : Lossy
Stream size                              : 327 MiB (19%)
Alignment                                : Split accross interleaves
Interleave, duration                     : 42 ms (1.00 video frame)
Interleave, preload duration             : 500 ms

Audio #2
ID                                       : 2
Format                                   : AC-3
Format/Info                              : Audio Coding 3
Mode extension                           : CM (complete main)
Codec ID                                 : 2000
Duration                                 : 1h 42mn
Bit rate mode                            : Constant
Bit rate                                 : 448 Kbps
Channel(s)                               : 6 channels
Channel positions                        : Front: L C R, Side: L R, LFE
Sampling rate                            : 48.0 KHz
Bit depth                                : 16 bits
Compression mode                         : Lossy
Stream size                              : 327 MiB (19%)
Alignment                                : Split accross interleaves
Interleave, duration                     : 42 ms (1.00 video frame)
Interleave, preload duration             : 500 ms



Info: Per scaricare devi usare un client come uTorrent o Transmission
AnnounceURL
udp://tracker.coppersurfer.tk:6969/announce
Hash e4d9f132d4a56c3705d74cc55f8a3a5c57e49f9e
Peers seeds: 30 , leech: 10
Size 1.73 GB
Completato 541x
Aggiunto 28.01.18 - 15:01:54
Uploader   robbyrs
Votazione (Voti: 1)


Condividi questo bittorrent:


html/blog:


bbcode/forum:




Aggiungi Commento


counter