* Dettagli Torrent   globale  | Commenti (0) 


- Vittoria e Abdul (2017).H264.italian.english.Ac3-5.1.sub.ita.eng.MIRCrew -


Download via torrent:
Categoria bittorrent BDRip
Descrizione
Victoria & Abdul - Vittoria e Abdul (2017).H264.italian.english.Ac3-5.1.sub.ita.eng.MIRCrew


NO FOUND ONLY ORIGINAL RELEASE



My release is always in double track audio italian and Original audio
for select it use VLC or dvd player home
not use wmp

Vittoria e Abdul

Victoria & Abdul

(2017)








GENERE: Drammatico
ANNO: 2017
REGIA: Stephen Frears

PAESE: USA, Gran Bretagna
DURATA: 112 Min
DISTRIBUZIONE: Universal Pictures



Judi Dench, Eddie Izzard, Ali Fazal, Michael Gambon, Olivia Williams, Tim Pigott-Smith, Simon Callow, Fenella Woolgar, Julian Wadham, Ruth McCabe



Victoria e Abdul è ispirato alla storia vera dell'improbabile amicizia tra il commesso indiano Abdul e la regina Vittoria, durante gli ultimi anni del suo regno. Abdul Karim (Ali Fazal) ha solo 24 anni quando sbarca in Inghilterra per servire a tavola durante il Giubileo d'oro della Regina............



Abdul Karim arrives from India to participate in Queen Victoria's golden jubilee. The young clerk is surprised to find favor with the queen herself. As Victoria questions the constrictions of her long-held position, the two forge an unlikely and devoted alliance that her household and inner circle try to destroy. .  












General
Unique ID                                : 286163798955071154855344951098159331615 (0xD7492497C34D37FFB0DDC2CCD0E6F91F)
Complete name                            : Vittoria e Abdul - Victoria & Abdul  (2017).H264.ita.eng.sub.ita.eng-MIRCrew\Vittoria e Abdul - Victoria & Abdul  (2017).H264.ita.eng.sub.ita.eng-MIRCrew.mkv
Format                                   : Matroska
Format version                           : Version 2
File size                                : 1.70 GiB
Duration                                 : 1h 51mn
Overall bit rate                         : 2 194 Kbps
Movie name                               : MIRCrew
Encoded date                             : UTC 2018-01-26 18:04:47
Writing application                      : Lavf54.63.100
Writing library                          : Lavf54.63.100
COPYRIGHT                                : robbyrs - iCN

Video
ID                                       : 1
Format                                   : AVC
Format/Info                              : Advanced Video Codec
Format profile                           : [email protected]
Format settings, CABAC                   : Yes
Format settings, ReFrames                : 2 frames
Codec ID                                 : V_MPEG4/ISO/AVC
Duration                                 : 1h 51mn
Bit rate                                 : 1 300 Kbps
Width                                    : 720 pixels
Height                                   : 300 pixels
Display aspect ratio                     : 2.40:1
Original display aspect ratio            : 2.40:1
Frame rate mode                          : Variable
Frame rate                               : 23.976 fps
Color space                              : YUV
Chroma subsampling                       : 4:2:0
Bit depth                                : 8 bits
Scan type                                : Progressive
Bits/(Pixel*Frame)                       : 0.251
Stream size                              : 998 MiB (57%)
Writing library                          : x264 core 130 r2273
Encoding settings                        : cabac=1 / ref=2 / deblock=1:0:0 / analyse=0x1:0x131 / me=hex / subme=7 / psy=1 / psy_rd=1.00:0.00 / mixed_ref=0 / me_range=16 / chroma_me=1 / trellis=1 / 8x8dct=0 / cqm=0 / deadzone=21,11 / fast_pskip=1 / chroma_qp_offset=-2 / threads=3 / lookahead_threads=1 / sliced_threads=0 / nr=0 / decimate=1 / interlaced=0 / bluray_compat=0 / constrained_intra=0 / bframes=3 / b_pyramid=0 / b_adapt=1 / b_bias=0 / direct=3 / weightb=1 / open_gop=0 / weightp=2 / keyint=230 / keyint_min=23 / scenecut=40 / intra_refresh=0 / rc_lookahead=40 / rc=abr / mbtree=1 / bitrate=1300 / ratetol=1.0 / qcomp=0.60 / qpmin=10 / qpmax=69 / qpstep=4 / vbv_maxrate=24000 / vbv_bufsize=24000 / nal_hrd=none / ip_ratio=1.40 / aq=1:1.00
Language                                 : Italian
Default                                  : Yes
Forced                                   : No
DURATION                                 : 01:51:10.873000000
NUMBER_OF_FRAMES                         : 159941
NUMBER_OF_BYTES                          : 6471086116
_STATISTICS_WRITING_APP                  : mkvmerge v15.0.0 ('Duel with the Devil') 64-bit
_STATISTICS_WRITING_DATE_UTC             : 2018-01-19 02:13:26
_STATISTICS_TAGS                         : BPS DURATION NUMBER_OF_FRAMES NUMBER_OF_BYTES

Audio #1
ID                                       : 2
Format                                   : AC-3
Format/Info                              : Audio Coding 3
Mode extension                           : CM (complete main)
Codec ID                                 : A_AC3
Duration                                 : 1h 51mn
Bit rate mode                            : Constant
Bit rate                                 : 448 Kbps
Channel(s)                               : 6 channels
Channel positions                        : Front: L C R, Side: L R, LFE
Sampling rate                            : 48.0 KHz
Bit depth                                : 16 bits
Compression mode                         : Lossy
Delay relative to video                  : 1mn 5s
Stream size                              : 356 MiB (20%)
Language                                 : Italian
Default                                  : No
Forced                                   : No
DURATION                                 : 01:51:10.848000000
NUMBER_OF_FRAMES                         : 208464
NUMBER_OF_BYTES                          : 533667840
_STATISTICS_WRITING_APP                  : mkvmerge v15.0.0 ('Duel with the Devil') 64-bit
_STATISTICS_WRITING_DATE_UTC             : 2018-01-19 02:13:26
_STATISTICS_TAGS                         : BPS DURATION NUMBER_OF_FRAMES NUMBER_OF_BYTES

Audio #2
ID                                       : 3
Format                                   : AC-3
Format/Info                              : Audio Coding 3
Mode extension                           : CM (complete main)
Codec ID                                 : A_AC3
Duration                                 : 1h 51mn
Bit rate mode                            : Constant
Bit rate                                 : 448 Kbps
Channel(s)                               : 6 channels
Channel positions                        : Front: L C R, Side: L R, LFE
Sampling rate                            : 48.0 KHz
Bit depth                                : 16 bits
Compression mode                         : Lossy
Delay relative to video                  : 1mn 5s
Stream size                              : 356 MiB (20%)
Language                                 : English
Default                                  : No
Forced                                   : No
DURATION                                 : 01:51:10.923000000
NUMBER_OF_FRAMES                         : 625399
NUMBER_OF_BYTES                          : 1258302876
_STATISTICS_WRITING_APP                  : mkvmerge v15.0.0 ('Duel with the Devil') 64-bit
_STATISTICS_WRITING_DATE_UTC             : 2018-01-19 02:13:26
_STATISTICS_TAGS                         : BPS DURATION NUMBER_OF_FRAMES NUMBER_OF_BYTES

Menu
00:00:00.000                             : :Chapter 01
00:05:41.132                             : :Chapter 02
00:10:37.803                             : :Chapter 03
00:15:44.026                             : :Chapter 04
00:20:05.829                             : :Chapter 05
00:28:20.699                             : :Chapter 06
00:35:27.208                             : :Chapter 07
00:41:05.045                             : :Chapter 08
00:49:15.160                             : :Chapter 09
00:54:43.488                             : :Chapter 10
00:59:56.843                             : :Chapter 11
01:07:12.111                             : :Chapter 12
01:12:12.745                             : :Chapter 13
01:17:47.162                             : :Chapter 14
01:21:20.792                             : :Chapter 15
01:27:25.031                             : :Chapter 16
01:30:56.909                             : :Chapter 17
01:38:49.465                             : :Chapter 18
01:42:31.520                             : :Chapter 19
01:44:27.594                             : :Chapter 20
01:51:10.664                             : :Chapter 21




Info: Per scaricare devi usare un client come uTorrent o Transmission
AnnounceURL
udp://tracker.coppersurfer.tk:6969/announce
Hash 4406b96a8b4452c68436709a72447c958f3a89ea
Peers seeds: 173 , leech: 28
Size 1.70 GB
Completato 3942x
Aggiunto 27.01.18 - 10:01:34
Uploader   robbyrs
Votazione (Voti: 0)


Condividi questo bittorrent:


html/blog:


bbcode/forum:




Aggiungi Commento


counter