* Dettagli Torrent   globale  | Commenti (0) 


- The Foreigner (2017) Jackie Chan.H264.italian.english.Ac3-5.1.sub.ita.eng.MIRCrew -


Download via torrent:
Categoria bittorrent BDRip
Descrizione
The Foreigner (2017).H264.italian.english.Ac3-5.1.sub.ita.eng.MIRCrew



NO FOUND ONLY ORIGINAL RELEASE



My release is always in double track audio italian and Original audio
for select it use VLC or dvd player home
not use wmp

The Foreigner

(2017)








   DATA USCITA: N.D.
   GENERE: Azione, Thriller
   ANNO: 2017
   REGIA: Martin Campbell
   PAESE: Gran Bretagna, Cina



Jackie Chan, Pierce Brosnan, Charlie Murphy, Katie Leung, Rory Fleck-Byrne, Simon Kunz, Pippa Bennett-Warner, Dermot Crowley



La storia del film, è quella di un immigrato cinese che vive a Londra e che perde la figlia in un attentato dinamitardo dell'IRA: allo scopo di ottenere giustizia e di trovare i responsabili.



A humble businessman with a buried past seeks justice when his daughter is killed in an act of terrorism. A cat-and-mouse conflict ensues with a government official, whose past may hold clues to the killers' identities.












[spoiler]
General
Unique ID                                : 180248381895848910059827503026979832713 (0x879A935B4FCC5D7F30A6F908FE7D8389)
Complete name                            : The Foreigner (2017).H264.ita.eng.sub.ita.eng-MIRCrew\The Foreigner (2017).H264.ita.eng.sub.ita.eng-MIRCrew.mkv
Format                                   : Matroska
Format version                           : Version 2
File size                                : 1.74 GiB
Duration                                 : 1h 53mn
Overall bit rate                         : 2 183 Kbps
Movie name                               : MIRCrew
Encoded date                             : UTC 2018-01-25 14:15:00
Writing application                      : Lavf54.63.100
Writing library                          : Lavf54.63.100
COPYRIGHT                                : robbyrs - iCN

Video
ID                                       : 1
Format                                   : AVC
Format/Info                              : Advanced Video Codec
Format profile                           : [email protected]
Format settings, CABAC                   : Yes
Format settings, ReFrames                : 2 frames
Codec ID                                 : V_MPEG4/ISO/AVC
Duration                                 : 1h 53mn
Bit rate                                 : 1 300 Kbps
Width                                    : 720 pixels
Height                                   : 304 pixels
Display aspect ratio                     : 2.40:1
Frame rate mode                          : Variable
Frame rate                               : 23.976 fps
Color space                              : YUV
Chroma subsampling                       : 4:2:0
Bit depth                                : 8 bits
Scan type                                : Progressive
Bits/(Pixel*Frame)                       : 0.248
Stream size                              : 1 013 MiB (57%)
Writing library                          : x264 core 130 r2273
Encoding settings                        : cabac=1 / ref=2 / deblock=1:0:0 / analyse=0x1:0x131 / me=hex / subme=7 / psy=1 / psy_rd=1.00:0.00 / mixed_ref=0 / me_range=16 / chroma_me=1 / trellis=1 / 8x8dct=0 / cqm=0 / deadzone=21,11 / fast_pskip=1 / chroma_qp_offset=-2 / threads=3 / lookahead_threads=1 / sliced_threads=0 / nr=0 / decimate=1 / interlaced=0 / bluray_compat=0 / constrained_intra=0 / bframes=3 / b_pyramid=0 / b_adapt=1 / b_bias=0 / direct=3 / weightb=1 / open_gop=0 / weightp=2 / keyint=230 / keyint_min=23 / scenecut=40 / intra_refresh=0 / rc_lookahead=40 / rc=abr / mbtree=1 / bitrate=1300 / ratetol=1.0 / qcomp=0.60 / qpmin=10 / qpmax=69 / qpstep=4 / vbv_maxrate=24000 / vbv_bufsize=24000 / nal_hrd=none / ip_ratio=1.40 / aq=1:1.00
Language                                 : Italian
Default                                  : Yes
Forced                                   : No
DURATION                                 : 01:53:52.045000000
NUMBER_OF_FRAMES                         : 163805
NUMBER_OF_BYTES                          : 8091149140
_STATISTICS_WRITING_APP                  : mkvmerge v7.2.0 ('On Every Street') 64bit built on Sep 13 2014 15:52:10
_STATISTICS_WRITING_DATE_UTC             : 2018-01-09 11:38:10
_STATISTICS_TAGS                         : BPS DURATION NUMBER_OF_FRAMES NUMBER_OF_BYTES

Audio #1
ID                                       : 2
Format                                   : AC-3
Format/Info                              : Audio Coding 3
Mode extension                           : CM (complete main)
Codec ID                                 : A_AC3
Duration                                 : 1h 53mn
Bit rate mode                            : Constant
Bit rate                                 : 448 Kbps
Channel(s)                               : 6 channels
Channel positions                        : Front: L C R, Side: L R, LFE
Sampling rate                            : 48.0 KHz
Bit depth                                : 16 bits
Compression mode                         : Lossy
Delay relative to video                  : 1mn 5s
Stream size                              : 365 MiB (21%)
Title                                    : AC3 iTA
Language                                 : Italian
Default                                  : Yes
Forced                                   : Yes
DURATION                                 : 01:53:52.128000000
NUMBER_OF_FRAMES                         : 213504
NUMBER_OF_BYTES                          : 382599168
_STATISTICS_WRITING_APP                  : mkvmerge v7.2.0 ('On Every Street') 64bit built on Sep 13 2014 15:52:10
_STATISTICS_WRITING_DATE_UTC             : 2018-01-09 11:38:10
_STATISTICS_TAGS                         : BPS DURATION NUMBER_OF_FRAMES NUMBER_OF_BYTES

Audio #2
ID                                       : 3
Format                                   : AC-3
Format/Info                              : Audio Coding 3
Mode extension                           : CM (complete main)
Codec ID                                 : A_AC3
Duration                                 : 1h 53mn
Bit rate mode                            : Constant
Bit rate                                 : 448 Kbps
Channel(s)                               : 6 channels
Channel positions                        : Front: L C R, Side: L R, LFE
Sampling rate                            : 48.0 KHz
Bit depth                                : 16 bits
Compression mode                         : Lossy
Delay relative to video                  : 1mn 5s
Stream size                              : 365 MiB (21%)
Title                                    : AC3 ENG
Language                                 : English
Default                                  : No
Forced                                   : No
DURATION                                 : 01:53:52.096000000
NUMBER_OF_FRAMES                         : 213503
NUMBER_OF_BYTES                          : 546567680
_STATISTICS_WRITING_APP                  : mkvmerge v7.2.0 ('On Every Street') 64bit built on Sep 13 2014 15:52:10
_STATISTICS_WRITING_DATE_UTC             : 2018-01-09 11:38:10
_STATISTICS_TAGS                         : BPS DURATION NUMBER_OF_FRAMES NUMBER_OF_BYTES

Menu
00:00:00.000                             : :00:00:00.000
00:08:19.541                             : :00:08:19.541
00:15:49.574                             : :00:15:49.574
00:21:47.765                             : :00:21:47.765
00:27:04.164                             : :00:27:04.164
00:32:09.511                             : :00:32:09.511
00:35:24.164                             : :00:35:24.164
00:38:30.934                             : :00:38:30.934
00:43:50.169                             : :00:43:50.169
00:47:38.189                             : :00:47:38.189
00:54:10.497                             : :00:54:10.497
01:01:42.324                             : :01:01:42.324
01:08:07.333                             : :01:08:07.333
01:14:14.033                             : :01:14:14.033
01:18:42.927                             : :01:18:42.927
01:23:26.877                             : :01:23:26.877
01:29:18.812                             : :01:29:18.812
01:38:55.012                             : :01:38:55.012
01:43:45.928                             : :01:43:45.928
01:47:09.298                             : :01:47:09.298


[/spoiler]



Info: Per scaricare devi usare un client come uTorrent o Transmission
AnnounceURL
udp://tracker.coppersurfer.tk:6969/announce
Hash b5982a05a3d87cf958d9f1e5dd9fd2d56f38aa6b
Peers seeds: 201 , leech: 26
Size 1.74 GB
Completato 5565x
Aggiunto 26.01.18 - 12:01:25
Uploader   robbyrs
Votazione (Voti: 2)


Condividi questo bittorrent:


html/blog:


bbcode/forum:




Aggiungi Commento


counter