* Dettagli Torrent   globale  | Commenti (0) 


- Blade Runner 2049 (2017).H264.italian.english.Ac3-5.1.sub.ita.forcedIta.eng.MIRCrew -


Download via torrent:
Categoria bittorrent BDRip
Descrizione
Blade Runner 2049 (2017).H264.italian.english.Ac3-5.1.sub.ita.forcedIta.eng.MIRCrew



NO FOUND ONLY ORIGINAL RELEASE



My release is always in double track audio italian and Original audio
for select it use VLC or dvd player home
not use wmp

Blade Runner 2049

(2017)








GENERE: Fantascienza, Thriller
ANNO: 2017
REGIA: Denis Villeneuve

PAESE: USA
DURATA: 152 Min
DISTRIBUZIONE: Warner Bros. Italia



Ryan Gosling, Harrison Ford, Ana de Armas, Jared Leto, Sylvia Hoeks, Robin Wright, Mackenzie Davis, Dave Bautista, Lennie James, Wood Harris, Edward James Olmos, Carla Juri, Barkhad Abdi, David Dastmalchian, Hiam Abbass, Mark Arnold



Dopo una serie di violente rivolte avvenute nel 2020, i replicanti prodotti dalla Tyrell sono stati messi al bando. Nello stesso anno, un grande black out che ha distrutto quasi completamente ogni dato digitale del pianeta, e gravi cambiamenti climatici hanno dato il via a una stagione di carestie............



A young blade runner's discovery of a long-buried secret leads him to track down former blade runner Rick Deckard, who's been missing for thirty years.













[spoiler]
General
Unique ID                                : 293420727335763725143933893207182233337 (0xDCBEC6C93A27F3438DAFB08CB73B4EF9)
Complete name                            : Blade Runner 2049 (2017).H264.ita.eng.sub.ita.eng-MIRCrew\Blade Runner (2049) 2017.H264.ita.eng.sub.ita.eng-MIRCrew_1.mkv
Format                                   : Matroska
Format version                           : Version 2
File size                                : 2.42 GiB
Duration                                 : 2h 43mn
Overall bit rate                         : 2 115 Kbps
Movie name                               : MIRCrew
Encoded date                             : UTC 2018-01-23 01:24:04
Writing application                      : Lavf54.63.100
Writing library                          : Lavf54.63.100

Video
ID                                       : 1
Format                                   : AVC
Format/Info                              : Advanced Video Codec
Format profile                           : [email protected]
Format settings, CABAC                   : Yes
Format settings, ReFrames                : 2 frames
Codec ID                                 : V_MPEG4/ISO/AVC
Duration                                 : 2h 43mn
Bit rate                                 : 1 350 Kbps
Width                                    : 720 pixels
Height                                   : 300 pixels
Display aspect ratio                     : 2.40:1
Frame rate mode                          : Variable
Frame rate                               : 23.976 fps
Color space                              : YUV
Chroma subsampling                       : 4:2:0
Bit depth                                : 8 bits
Scan type                                : Progressive
Bits/(Pixel*Frame)                       : 0.261
Stream size                              : 1.49 GiB (62%)
Writing library                          : x264 core 130 r2273
Encoding settings                        : cabac=1 / ref=2 / deblock=1:0:0 / analyse=0x1:0x131 / me=hex / subme=7 / psy=1 / psy_rd=1.00:0.00 / mixed_ref=0 / me_range=16 / chroma_me=1 / trellis=1 / 8x8dct=0 / cqm=0 / deadzone=21,11 / fast_pskip=1 / chroma_qp_offset=-2 / threads=3 / lookahead_threads=1 / sliced_threads=0 / nr=0 / decimate=1 / interlaced=0 / bluray_compat=0 / constrained_intra=0 / bframes=3 / b_pyramid=0 / b_adapt=1 / b_bias=0 / direct=3 / weightb=1 / open_gop=0 / weightp=2 / keyint=230 / keyint_min=23 / scenecut=40 / intra_refresh=0 / rc_lookahead=40 / rc=abr / mbtree=1 / bitrate=1350 / ratetol=1.0 / qcomp=0.60 / qpmin=10 / qpmax=69 / qpstep=4 / vbv_maxrate=20000 / vbv_bufsize=20000 / nal_hrd=none / ip_ratio=1.40 / aq=1:1.00
Language                                 : Italian
Default                                  : Yes
Forced                                   : No
DURATION                                 : 02:43:47.818000000
NUMBER_OF_FRAMES                         : 235632
NUMBER_OF_BYTES                          : 11304305973
_STATISTICS_WRITING_APP                  : mkvmerge v7.2.0 ('On Every Street') 64bit built on Sep 13 2014 15:52:10
_STATISTICS_WRITING_DATE_UTC             : 2018-01-23 01:24:04
_STATISTICS_TAGS                         : BPS DURATION NUMBER_OF_FRAMES NUMBER_OF_BYTES

Audio #1
ID                                       : 2
Format                                   : AC-3
Format/Info                              : Audio Coding 3
Mode extension                           : CM (complete main)
Codec ID                                 : A_AC3
Duration                                 : 2h 43mn
Bit rate mode                            : Constant
Bit rate                                 : 384 Kbps
Channel(s)                               : 6 channels
Channel positions                        : Front: L C R, Side: L R, LFE
Sampling rate                            : 48.0 KHz
Bit depth                                : 16 bits
Compression mode                         : Lossy
Delay relative to video                  : 1mn 5s
Stream size                              : 450 MiB (18%)
Title                                    : AC3 iTA
Language                                 : Italian
Default                                  : Yes
Forced                                   : Yes
DURATION                                 : 02:43:41.792000000
NUMBER_OF_FRAMES                         : 306931
NUMBER_OF_BYTES                          : 471446016
_STATISTICS_WRITING_APP                  : mkvmerge v7.2.0 ('On Every Street') 64bit built on Sep 13 2014 15:52:10
_STATISTICS_WRITING_DATE_UTC             : 2018-01-23 01:24:04
_STATISTICS_TAGS                         : BPS DURATION NUMBER_OF_FRAMES NUMBER_OF_BYTES

Audio #2
ID                                       : 3
Format                                   : AC-3
Format/Info                              : Audio Coding 3
Mode extension                           : CM (complete main)
Codec ID                                 : A_AC3
Duration                                 : 2h 43mn
Bit rate mode                            : Constant
Bit rate                                 : 384 Kbps
Channel(s)                               : 6 channels
Channel positions                        : Front: L C R, Side: L R, LFE
Sampling rate                            : 48.0 KHz
Bit depth                                : 16 bits
Compression mode                         : Lossy
Delay relative to video                  : 1mn 5s
Stream size                              : 450 MiB (18%)
Title                                    : AC3 ENG
Language                                 : English
Default                                  : No
Forced                                   : No
DURATION                                 : 02:43:47.840000000
NUMBER_OF_FRAMES                         : 307120
NUMBER_OF_BYTES                          : 550359040
_STATISTICS_WRITING_APP                  : mkvmerge v7.2.0 ('On Every Street') 64bit built on Sep 13 2014 15:52:10
_STATISTICS_WRITING_DATE_UTC             : 2018-01-23 01:24:04
_STATISTICS_TAGS                         : BPS DURATION NUMBER_OF_FRAMES NUMBER_OF_BYTES

Menu
00:00:00.000                             : :Chapter 01
00:12:50.269                             : :Chapter 02
00:23:43.380                             : :Chapter 03
00:37:14.857                             : :Chapter 04
00:43:04.248                             : :Chapter 05
00:49:38.600                             : :Chapter 06
00:58:49.609                             : :Chapter 07
01:04:24.485                             : :Chapter 08
01:16:01.014                             : :Chapter 09
01:25:26.412                             : :Chapter 10
01:36:29.158                             : :Chapter 11
01:51:08.953                             : :Chapter 12
02:01:50.761                             : :Chapter 13
02:08:54.476                             : :Chapter 14
02:16:56.583                             : :Chapter 15
02:28:00.913                             : :Chapter 16



[/spoiler]



Info: Per scaricare devi usare un client come uTorrent o Transmission
AnnounceURL
udp://tracker.coppersurfer.tk:6969/announce
Hash f4b902481acd607dc53825fe8de757ebeba45f88
Peers seeds: 495 , leech: 86
Size 2.42 GB
Completato 12872x
Aggiunto 25.01.18 - 13:01:51
Uploader   robbyrs
Votazione (Voti: 0)


Condividi questo bittorrent:


html/blog:


bbcode/forum:




Aggiungi Commento


counter