* Dettagli Torrent   globale  | Commenti (0) 


- Jukai - La foresta dei suicidi (2016).H264.italian.english.Ac3-5.1.sub.ita.eng.MIRCrew -


Download via torrent:
Categoria bittorrent BDRip
Descrizione
The Forest  - Jukai - La foresta dei suicidi (2016).H264.italian.english.Ac3-5.1.sub.ita.eng.MIRCrew



NO FOUND ONLY ORIGINAL RELEASE



My release is always in double track audio italian and Original audio
for select it use VLC or dvd player home
not use wmp

Jukai - La foresta dei suicidi

The Forest

(2016)








Titolo originale The Forest
Paese di produzione Stati Uniti d'America
Anno 2016
Durata 93 min
Genere Horror
Regia Jason Zada
Sceneggiatura Nick Antosca, Sarah Cornwell, Ben Ketai
Produttore David S. Goyer, David Linde, Tory Metzger
Casa di produzione AI-Film, Lava Bear Films
Distribuzione (Italia) Koch Media
Fotografia Mattias Troelstrup
Montaggio Jim Flynn
Musiche Bear McCreary
Scenografia Kevin Phipps



   Natalie Dormer: Sara e Jess Price
   Taylor Kinney: Aiden
   Eoin Macken: Rob
   Yukiyoshi Ozawa: Michi
   Rina Takasaki: Hoshiko
   Noriko Sakura: Mayumi
   Yûho Yamashita: Sakura
   James Owen: Peter
   Stephanie Vogt: Valerie



La foresta Aokigahara è un groviglio silenzioso di alberi e arbusti situato ai piedi del monte Fuji, in Giappone. La giovane Sara vi si inoltra per ritrovare la gemella Jess che tutti credono morta.



A woman goes into Japan's Suicide Forest to find her twin sister, and confronts supernatural terror.  












[spoiler]
General
Unique ID                                : 226092645760044965996687803549672651805 (0xAA17DC132B58B0B83670F01A4BADBC1D)
Complete name                            : Jukai - La foresta dei suicidi - The Forest (2016).h264.ita.eng.sub.ita.eng-MIRCrew\Jukai - La foresta dei suicidi - The Forest(2016).h264.ita.eng.sub.ita.eng-MIRCrew.mkv
Format                                   : Matroska
Format version                           : Version 2
File size                                : 1.42 GiB
Duration                                 : 1h 33mn
Overall bit rate                         : 2 178 Kbps
Movie name                               : MIRCrew
Encoded date                             : UTC 2018-01-23 17:22:56
Writing application                      : Lavf54.63.100
Writing library                          : Lavf54.63.100

Video
ID                                       : 1
Format                                   : AVC
Format/Info                              : Advanced Video Codec
Format profile                           : [email protected]
Format settings, CABAC                   : Yes
Format settings, ReFrames                : 2 frames
Codec ID                                 : V_MPEG4/ISO/AVC
Duration                                 : 1h 33mn
Bit rate                                 : 1 300 Kbps
Width                                    : 720 pixels
Height                                   : 384 pixels
Display aspect ratio                     : 1.854
Original display aspect ratio            : 1.853
Frame rate mode                          : Variable
Frame rate                               : 24.000 fps
Color space                              : YUV
Chroma subsampling                       : 4:2:0
Bit depth                                : 8 bits
Scan type                                : Progressive
Bits/(Pixel*Frame)                       : 0.196
Stream size                              : 828 MiB (57%)
Writing library                          : x264 core 130 r2273
Encoding settings                        : cabac=1 / ref=2 / deblock=1:0:0 / analyse=0x1:0x131 / me=hex / subme=7 / psy=1 / psy_rd=1.00:0.00 / mixed_ref=0 / me_range=16 / chroma_me=1 / trellis=1 / 8x8dct=0 / cqm=0 / deadzone=21,11 / fast_pskip=1 / chroma_qp_offset=-2 / threads=3 / lookahead_threads=1 / sliced_threads=0 / nr=0 / decimate=1 / interlaced=0 / bluray_compat=0 / constrained_intra=0 / bframes=3 / b_pyramid=0 / b_adapt=1 / b_bias=0 / direct=3 / weightb=1 / open_gop=0 / weightp=2 / keyint=240 / keyint_min=24 / scenecut=40 / intra_refresh=0 / rc_lookahead=40 / rc=abr / mbtree=1 / bitrate=1300 / ratetol=1.0 / qcomp=0.60 / qpmin=10 / qpmax=69 / qpstep=4 / vbv_maxrate=20000 / vbv_bufsize=20000 / nal_hrd=none / ip_ratio=1.40 / aq=1:1.00
Language                                 : Italian
Default                                  : Yes
Forced                                   : No
DURATION                                 : 01:33:11.792000000
NUMBER_OF_FRAMES                         : 134203
NUMBER_OF_BYTES                          : 7109342059
_STATISTICS_WRITING_APP                  : mkvmerge v15.0.0 ('Duel with the Devil') 64-bit
_STATISTICS_WRITING_DATE_UTC             : 2018-01-12 19:29:05
_STATISTICS_TAGS                         : BPS DURATION NUMBER_OF_FRAMES NUMBER_OF_BYTES

Audio #1
ID                                       : 2
Format                                   : AC-3
Format/Info                              : Audio Coding 3
Mode extension                           : CM (complete main)
Codec ID                                 : A_AC3
Duration                                 : 1h 33mn
Bit rate mode                            : Constant
Bit rate                                 : 448 Kbps
Channel(s)                               : 6 channels
Channel positions                        : Front: L C R, Side: L R, LFE
Sampling rate                            : 48.0 KHz
Bit depth                                : 16 bits
Compression mode                         : Lossy
Delay relative to video                  : 1mn 5s
Stream size                              : 299 MiB (21%)
Language                                 : Italian
Default                                  : No
Forced                                   : No
DURATION                                 : 01:33:27.872000000
NUMBER_OF_FRAMES                         : 175246
NUMBER_OF_BYTES                          : 448629760
_STATISTICS_WRITING_APP                  : mkvmerge v15.0.0 ('Duel with the Devil') 64-bit
_STATISTICS_WRITING_DATE_UTC             : 2018-01-12 19:29:05
_STATISTICS_TAGS                         : BPS DURATION NUMBER_OF_FRAMES NUMBER_OF_BYTES

Audio #2
ID                                       : 3
Format                                   : AC-3
Format/Info                              : Audio Coding 3
Mode extension                           : CM (complete main)
Codec ID                                 : A_AC3
Duration                                 : 1h 33mn
Bit rate mode                            : Constant
Bit rate                                 : 448 Kbps
Channel(s)                               : 6 channels
Channel positions                        : Front: L C R, Side: L R, LFE
Sampling rate                            : 48.0 KHz
Bit depth                                : 16 bits
Compression mode                         : Lossy
Delay relative to video                  : 1mn 5s
Stream size                              : 299 MiB (21%)
Language                                 : English
Default                                  : No
Forced                                   : No
DURATION                                 : 01:33:11.808000000
NUMBER_OF_FRAMES                         : 524232
NUMBER_OF_BYTES                          : 1054754784
_STATISTICS_WRITING_APP                  : mkvmerge v15.0.0 ('Duel with the Devil') 64-bit
_STATISTICS_WRITING_DATE_UTC             : 2018-01-12 19:29:05
_STATISTICS_TAGS                         : BPS DURATION NUMBER_OF_FRAMES NUMBER_OF_BYTES

Menu
00:00:00.000                             : :00:00:00.000
00:05:31.666                             : :00:05:31.666
00:09:29.666                             : :00:09:29.666
00:15:36.416                             : :00:15:36.416
00:19:22.791                             : :00:19:22.791
00:23:36.958                             : :00:23:36.958
00:28:55.457                             : :00:28:55.457
00:34:12.916                             : :00:34:12.916
00:36:56.040                             : :00:36:56.040
00:40:23.249                             : :00:40:23.249
00:43:53.499                             : :00:43:53.499
00:48:44.708                             : :00:48:44.708
00:53:17.290                             : :00:53:17.290
00:59:35.541                             : :00:59:35.541
01:02:31.332                             : :01:02:31.332
01:07:16.124                             : :01:07:16.124
01:11:29.040                             : :01:11:29.040
01:16:22.416                             : :01:16:22.416
01:21:30.165                             : :01:21:30.165
01:26:49.124                             : :01:26:49.124


[/spoiler]



Info: Per scaricare devi usare un client come uTorrent o Transmission
AnnounceURL
udp://tracker.coppersurfer.tk:6969/announce
Hash 8a5830ea91fa1fcd4e88533b13a9b215ad354d19
Peers seeds: 69 , leech: 11
Size 1.42 GB
Completato 2498x
Aggiunto 24.01.18 - 20:01:15
Uploader   robbyrs
Votazione (Voti: 1)


Condividi questo bittorrent:


html/blog:


bbcode/forum:




Aggiungi Commento


counter