* Dettagli Torrent   globale  | Commenti (0) 


- Good Time (2017).H264.italian.english.Ac3-5.1.sub.ita.eng.MIRCrew -


Download via torrent:
Categoria bittorrent BDRip
Descrizione
Good Time (2017).H264.italian.english.Ac3-5.1.sub.ita.eng.MIRCrew


NO FOUND ONLY ORIGINAL RELEASE



My release is always in double track audio italian and Original audio
for select it use VLC or dvd player home
not use wmp

Good Time

(2017)









   DATA USCITA: 26 ottobre 2017
   GENERE: Drammatico
   ANNO: 2017
   REGIA: Benny Safdie, Joshua Safdie
   
   PAESE: USA
   DURATA: 100 Min
   DISTRIBUZIONE: Movies Inspired



Jennifer Jason Leigh, Robert Pattinson, Barkhad Abdi, Benny Safdie, Marcos A. Gonzalez, Rose Gregorio



La storia di Good Time è quella di Constantine "Connie" Nickas (Robert Pattinson), deciso a ritrovare il fratello finito in carcere per una rapina in banca andata male. Inizia così una scellerata odissea nel sottobosco criminale di New York, nel disperato tentativo prima di tirare il ragazzo handicappato mentale fuori di galera,...............



After a heist goes awry, a bank robber spends a night trying to free his mentally handicapped brother from being sent to Riker's Island prison.











[spoiler]
General
Unique ID                                : 247985223149002794469107497527034646233 (0xBA903779D60B63DC3B72D58A99960ED9)
Complete name                            : Good Time (2017).H264.ita.eng.sub.ita.eng.MIRCrew\Good Time (2017).H264.ita.eng.sub.ita.eng.MIRCrew.mkv
Format                                   : Matroska
Format version                           : Version 2
File size                                : 1.55 GiB
Duration                                 : 1h 41mn
Overall bit rate                         : 2 194 Kbps
Movie name                               : MIRCrew
Encoded date                             : UTC 2018-01-19 10:39:58
Writing application                      : Lavf54.63.100
Writing library                          : Lavf54.63.100

Video
ID                                       : 1
Format                                   : AVC
Format/Info                              : Advanced Video Codec
Format profile                           : [email protected]
Format settings, CABAC                   : Yes
Format settings, ReFrames                : 2 frames
Codec ID                                 : V_MPEG4/ISO/AVC
Duration                                 : 1h 41mn
Bit rate                                 : 1 290 Kbps
Width                                    : 720 pixels
Height                                   : 300 pixels
Display aspect ratio                     : 2.40:1
Frame rate mode                          : Variable
Frame rate                               : 24.000 fps
Color space                              : YUV
Chroma subsampling                       : 4:2:0
Bit depth                                : 8 bits
Scan type                                : Progressive
Bits/(Pixel*Frame)                       : 0.249
Stream size                              : 910 MiB (57%)
Writing library                          : x264 core 130 r2273
Encoding settings                        : cabac=1 / ref=2 / deblock=1:0:0 / analyse=0x1:0x131 / me=hex / subme=7 / psy=1 / psy_rd=1.00:0.00 / mixed_ref=0 / me_range=16 / chroma_me=1 / trellis=1 / 8x8dct=0 / cqm=0 / deadzone=21,11 / fast_pskip=1 / chroma_qp_offset=-2 / threads=3 / lookahead_threads=1 / sliced_threads=0 / nr=0 / decimate=1 / interlaced=0 / bluray_compat=0 / constrained_intra=0 / bframes=3 / b_pyramid=0 / b_adapt=1 / b_bias=0 / direct=3 / weightb=1 / open_gop=0 / weightp=2 / keyint=240 / keyint_min=24 / scenecut=40 / intra_refresh=0 / rc_lookahead=40 / rc=abr / mbtree=1 / bitrate=1290 / ratetol=1.0 / qcomp=0.60 / qpmin=10 / qpmax=69 / qpstep=4 / vbv_maxrate=24000 / vbv_bufsize=24000 / nal_hrd=none / ip_ratio=1.40 / aq=1:1.00
Language                                 : Italian
Default                                  : Yes
Forced                                   : No
DURATION                                 : 01:41:11.125000000
NUMBER_OF_FRAMES                         : 145707
NUMBER_OF_BYTES                          : 7941697931
_STATISTICS_WRITING_APP                  : mkvmerge v15.0.0 ('Duel with the Devil') 64-bit
_STATISTICS_WRITING_DATE_UTC             : 2018-01-10 18:07:41
_STATISTICS_TAGS                         : BPS DURATION NUMBER_OF_FRAMES NUMBER_OF_BYTES

Audio #1
ID                                       : 2
Format                                   : AC-3
Format/Info                              : Audio Coding 3
Mode extension                           : CM (complete main)
Codec ID                                 : A_AC3
Duration                                 : 1h 41mn
Bit rate mode                            : Constant
Bit rate                                 : 448 Kbps
Channel(s)                               : 6 channels
Channel positions                        : Front: L C R, Side: L R, LFE
Sampling rate                            : 48.0 KHz
Bit depth                                : 16 bits
Compression mode                         : Lossy
Delay relative to video                  : 1mn 5s
Stream size                              : 325 MiB (20%)
Language                                 : Italian
Default                                  : No
Forced                                   : No
DURATION                                 : 01:41:22.016000000
NUMBER_OF_FRAMES                         : 190063
NUMBER_OF_BYTES                          : 486561280
_STATISTICS_WRITING_APP                  : mkvmerge v15.0.0 ('Duel with the Devil') 64-bit
_STATISTICS_WRITING_DATE_UTC             : 2018-01-10 18:07:41
_STATISTICS_TAGS                         : BPS DURATION NUMBER_OF_FRAMES NUMBER_OF_BYTES

Audio #2
ID                                       : 3
Format                                   : AC-3
Format/Info                              : Audio Coding 3
Mode extension                           : CM (complete main)
Codec ID                                 : A_AC3
Duration                                 : 1h 41mn
Bit rate mode                            : Constant
Bit rate                                 : 448 Kbps
Channel(s)                               : 6 channels
Channel positions                        : Front: L C R, Side: L R, LFE
Sampling rate                            : 48.0 KHz
Bit depth                                : 16 bits
Compression mode                         : Lossy
Delay relative to video                  : 1mn 5s
Stream size                              : 325 MiB (20%)
Language                                 : English
Default                                  : No
Forced                                   : No
DURATION                                 : 01:41:11.158000000
NUMBER_OF_FRAMES                         : 569171
NUMBER_OF_BYTES                          : 1145172052
_STATISTICS_WRITING_APP                  : mkvmerge v15.0.0 ('Duel with the Devil') 64-bit
_STATISTICS_WRITING_DATE_UTC             : 2018-01-10 18:07:41
_STATISTICS_TAGS                         : BPS DURATION NUMBER_OF_FRAMES NUMBER_OF_BYTES

Menu
00:00:00.000                             : :00:00:00.000
00:07:00.583                             : :00:07:00.583
00:13:16.875                             : :00:13:16.875
00:19:21.124                             : :00:19:21.124
00:25:58.708                             : :00:25:58.708
00:31:33.958                             : :00:31:33.958
00:39:49.499                             : :00:39:49.499
00:44:56.208                             : :00:44:56.208
00:53:19.374                             : :00:53:19.374
00:58:09.833                             : :00:58:09.833
01:05:28.208                             : :01:05:28.208
01:12:08.249                             : :01:12:08.249
01:17:32.291                             : :01:17:32.291
01:25:08.875                             : :01:25:08.875
01:29:57.791                             : :01:29:57.791
01:38:09.625                             : :01:38:09.625



[/spoiler]



Info: Per scaricare devi usare un client come uTorrent o Transmission
AnnounceURL
udp://tracker.coppersurfer.tk:6969/announce
Hash 97818a3347db1b8452ac5f4d34bde8af28c1f0a6
Peers seeds: 71 , leech: 8
Size 1.55 GB
Completato 3397x
Aggiunto 23.01.18 - 17:01:38
Uploader   robbyrs
Votazione (Voti: 0)


Condividi questo bittorrent:


html/blog:


bbcode/forum:




Aggiungi Commento


counter