* Dettagli Torrent   globale  | Commenti (0) 


- Geostorm (2017).H264.italian.english.Ac3-5.1.sub.eng.MIRCrew -


Download via torrent:
Categoria bittorrent BDRip
Descrizione
Geostorm (2017).H264.italian.english.Ac3-5.1.sub.eng.MIRCrew



NO FOUND ONLY ORIGINAL RELEASE



My release is always in double track audio italian and Original audio
for select it use VLC or dvd player home
not use wmp

Geostorm

(2017)








   DATA USCITA: 01 novembre 2017
   GENERE: Azione
   ANNO: 2017
   REGIA: Dean Devlin
   
   PAESE: USA
   DURATA: 109 Min
   FORMATO: 2D e 3D
   DISTRIBUZIONE: Warner Bros.



Gerard Butler, Ed Harris, Andy Garcia, Katheryn Winnick, Jim Sturgess, Abbie Cornish, Robert Sheehan, Mare Winningham, Amr Waked, Drew Powell, Eugenio Derbez, Sterling Jerins



Disaster movie che muove dal fenomeno dei cambiamenti climatici, Geostorm vede Gerard Butler e Jim Sturgess nei panni di due fratelli impegnati a salvare il mondo dall'imminente catastrofe...............



When the network of satellites designed to control the global climate starts to attack Earth, it's a race against the clock for its creator to uncover the real threat before a worldwide Geostorm wipes out everything and everyone.












[spoiler]
General
Unique ID                                : 202093880146975581647772983898481456511 (0x9809DD93B7C96B9387C25D236BF1757F)
Complete name                            : Geostorm (2017).H264.ita.eng.sub.eng-MIRCrew\Geostorm (2017).H264.ita.eng.sub.eng-MIRCrew.mkv
Format                                   : Matroska
Format version                           : Version 2
File size                                : 1.67 GiB
Duration                                 : 1h 49mn
Overall bit rate                         : 2 194 Kbps
Movie name                               : MIRCrew
Encoded date                             : UTC 2018-01-19 17:09:04
Writing application                      : mkvmerge v5.4.0 ('Piper') built on Mar 10 2012 13:34:39
Writing library                          : Lavf54.63.100
COPYRIGHT                                : robbyrs

Video
ID                                       : 1
Format                                   : AVC
Format/Info                              : Advanced Video Codec
Format profile                           : [email protected]
Format settings, CABAC                   : Yes
Format settings, ReFrames                : 2 frames
Muxing mode                              : Header stripping
Codec ID                                 : V_MPEG4/ISO/AVC
Duration                                 : 1h 49mn
Bit rate                                 : 1 300 Kbps
Width                                    : 720 pixels
Height                                   : 300 pixels
Display aspect ratio                     : 2.40:1
Frame rate mode                          : Variable
Frame rate                               : 23.976 fps
Color space                              : YUV
Chroma subsampling                       : 4:2:0
Bit depth                                : 8 bits
Scan type                                : Progressive
Bits/(Pixel*Frame)                       : 0.251
Stream size                              : 979 MiB (57%)
Title                                    : Geostorm (2017).H264.ita.eng-MIRCrew
Writing library                          : x264 core 130 r2273
Encoding settings                        : cabac=1 / ref=2 / deblock=1:0:0 / analyse=0x1:0x131 / me=hex / subme=7 / psy=1 / psy_rd=1.00:0.00 / mixed_ref=0 / me_range=16 / chroma_me=1 / trellis=1 / 8x8dct=0 / cqm=0 / deadzone=21,11 / fast_pskip=1 / chroma_qp_offset=-2 / threads=3 / lookahead_threads=1 / sliced_threads=0 / nr=0 / decimate=1 / interlaced=0 / bluray_compat=0 / constrained_intra=0 / bframes=3 / b_pyramid=0 / b_adapt=1 / b_bias=0 / direct=3 / weightb=1 / open_gop=0 / weightp=2 / keyint=230 / keyint_min=23 / scenecut=40 / intra_refresh=0 / rc_lookahead=40 / rc=abr / mbtree=1 / bitrate=1300 / ratetol=1.0 / qcomp=0.60 / qpmin=10 / qpmax=69 / qpstep=4 / vbv_maxrate=24000 / vbv_bufsize=24000 / nal_hrd=none / ip_ratio=1.40 / aq=1:1.00
Language                                 : Italian
Default                                  : Yes
Forced                                   : No
DURATION                                 : 01:49:07.166000000
NUMBER_OF_FRAMES                         : 156975
NUMBER_OF_BYTES                          : 2045094533
_STATISTICS_WRITING_APP                  : mkvmerge v17.0.0 ('Be Ur Friend') 64-bit
_STATISTICS_WRITING_DATE_UTC             : 2018-01-19 17:09:04
_STATISTICS_TAGS                         : BPS DURATION NUMBER_OF_FRAMES NUMBER_OF_BYTES

Audio #1
ID                                       : 2
Format                                   : AC-3
Format/Info                              : Audio Coding 3
Mode extension                           : CM (complete main)
Muxing mode                              : Header stripping
Codec ID                                 : A_AC3
Duration                                 : 1h 49mn
Bit rate mode                            : Constant
Bit rate                                 : 448 Kbps
Channel(s)                               : 6 channels
Channel positions                        : Front: L C R, Side: L R, LFE
Sampling rate                            : 48.0 KHz
Bit depth                                : 16 bits
Compression mode                         : Lossy
Delay relative to video                  : -42ms
Stream size                              : 350 MiB (20%)
Title                                    : Ita
Language                                 : Italian
Default                                  : Yes
Forced                                   : No

Audio #2
ID                                       : 3
Format                                   : AC-3
Format/Info                              : Audio Coding 3
Mode extension                           : CM (complete main)
Muxing mode                              : Header stripping
Codec ID                                 : A_AC3
Duration                                 : 1h 49mn
Bit rate mode                            : Constant
Bit rate                                 : 448 Kbps
Channel(s)                               : 6 channels
Channel positions                        : Front: L C R, Side: L R, LFE
Sampling rate                            : 48.0 KHz
Bit depth                                : 16 bits
Compression mode                         : Lossy
Delay relative to video                  : -42ms
Stream size                              : 350 MiB (20%)
Title                                    : Eng
Language                                 : English
Default                                  : No
Forced                                   : No

Menu
00:00:00.000                             : :00:00:00.000
00:08:33.972                             : :00:08:33.972
00:16:52.053                             : :00:16:52.053
00:27:20.556                             : :00:27:20.556
00:39:13.184                             : :00:39:13.184
00:48:47.925                             : :00:48:47.925
01:00:24.746                             : :01:00:24.746
01:11:01.090                             : :01:11:01.090
01:19:14.959                             : :01:19:14.959
01:30:08.570                             : :01:30:08.570
01:40:25.728                             : :01:40:25.728


[/spoiler]



Info: Per scaricare devi usare un client come uTorrent o Transmission
AnnounceURL
udp://tracker.coppersurfer.tk:6969/announce
Hash ac97a9840d709739343f1d1d675af21287363f55
Peers seeds: 167 , leech: 31
Size 1.67 GB
Completato 7409x
Aggiunto 23.01.18 - 14:01:38
Uploader   robbyrs
Votazione (Voti: 0)


Condividi questo bittorrent:


html/blog:


bbcode/forum:




Aggiungi Commento


counter