* Dettagli Torrent   globale  | Commenti (0) 


- Ammore.E.Malavita.2017.iTALiAN.Bluray.1080p.x264-FoRaCrEw.mkv -


Download via torrent:
Categoria bittorrent BDRip
Descrizione
[center]

GIUSEPPEiCV & LITTLELINX
HANNO IL PIACERE DI PRESENTARE


BDRIP 1080p
Audio ITA DTS - AC3
Sub ITA - ENG



.: Dati :.

DATA USCITA: 05 ottobre 2017
GENERE: Commedia, Musicale, Noir
ANNO: 2017
REGIA: Marco Manetti, Antonio Manetti
ATTORI: Carlo Buccirosso, Claudia Gerini, Giampaolo Morelli, Serena Rossi, Raiz, Franco Ricciardi, Antonio Buonomo
PAESE: Italia
DURATA: 133 Min
DISTRIBUZIONE: 01 Distribution


Trama: Due mondi distanti si incontrano nella pellicola partenopea di Marco e Antonio Manetti, Ammore e malavita. Ciro (Giampaolo Morelli) è un temuto killer di Napoli, una delle due "tigri" - accanto a Rosario (Raiz) - al servizio di don Vincenzo (Carlo Buccirosso) detto "o' re do pesce", e dell'astuta moglie donna Maria (Claudia Gerini).
La giovane infermiera Fatima (Serena Rossi) è una ragazza onesta e sognatrice, finita per sbaglio in una situazione pericolosa. Ciro riceve l'incarico di sbarazzarsi di quella testimone indesiderata che "ha visto troppo", ma le cose non vanno come previsto. I due si trovano faccia a faccia, si riconoscono e riscoprono l'uno nell'altra, l'amore mai dimenticato della loro adolescenza. Per Ciro c'è una sola soluzione: tradire don Vincenzo e donna Maria e uccidere chi li vuole uccidere. Inizia così una lotta senza quartiere sullo sfondo degli gli splendidi scenari dei vicoli di Napoli e il mare del golfo. Tra musica e azione, amore e pallottole.

.: Screenshot :.






.: Caratteristiche Tecniche :.

[Spoiler]
Ammore.E.Malavita.2017.iTALiAN.Bluray.1080p.x264-FoRaCrEw/Ammore.E.Malavita.2017.iTALiAN.Bluray.1080p.x264-FoRaCrEw.mkv
Format                                   : Matroska
Format version                           : Version 4 / Version 2
File size                                : 11.1 GiB
Duration                                 : 2h 19mn
Overall bit rate                         : 11.4 Mbps
Encoded date                             : UTC 2010-02-22 21:41:31
Writing application                      : mkvmerge v5.9.0 ('On The Loose') built on Dec  9 2012 15:37:01
Writing library                          : libebml v1.3.0 + libmatroska v1.4.0

Video
ID                                       : 1
Format                                   : AVC
Format/Info                              : Advanced Video Codec
Format profile                           : [email protected]
Format settings, CABAC                   : Yes
Format settings, ReFrames                : 5 frames
Muxing mode                              : Header stripping
Codec ID                                 : V_MPEG4/ISO/AVC
Duration                                 : 2h 19mn
Bit rate                                 : 9 259 Kbps
Width                                    : 1 920 pixels
Height                                   : 804 pixels
Display aspect ratio                     : 2.40:1
Frame rate                               : 24.000 fps
Color space                              : YUV
Chroma subsampling                       : 4:2:0
Bit depth                                : 8 bits
Scan type                                : Progressive
Bits/(Pixel*Frame)                       : 0.250
Stream size                              : 8.81 GiB (79%)
Writing library                          : x264 core 152 r2851 ba24899
Encoding settings                        : cabac=1 / ref=5 / deblock=1:-2:-2 / analyse=0x3:0x133 / me=hex / subme=7 / psy=1 / psy_rd=1.00:0.00 / mixed_ref=1 / me_range=16 / chroma_me=1 / trellis=1 / 8x8dct=1 / cqm=0 / deadzone=21,11 / fast_pskip=1 / chroma_qp_offset=-2 / threads=12 / lookahead_threads=2 / sliced_threads=0 / nr=0 / decimate=1 / interlaced=0 / bluray_compat=0 / constrained_intra=0 / bframes=3 / b_pyramid=2 / b_adapt=1 / b_bias=0 / direct=1 / weightb=1 / open_gop=0 / weightp=2 / keyint=240 / keyint_min=24 / scenecut=40 / intra_refresh=0 / rc_lookahead=50 / rc=2pass / mbtree=1 / bitrate=9259 / ratetol=1.0 / qcomp=0.60 / qpmin=0 / qpmax=69 / qpstep=4 / cplxblur=20.0 / qblur=0.5 / vbv_maxrate=50000 / vbv_bufsize=62500 / nal_hrd=none / filler=0 / ip_ratio=1.40 / aq=1:1.00
Language                                 : English
Default                                  : Yes
Forced                                   : No

Audio #1
ID                                       : 2
Format                                   : DTS
Format/Info                              : Digital Theater Systems
Muxing mode                              : Header stripping
Codec ID                                 : A_DTS
Duration                                 : 2h 19mn
Bit rate mode                            : Constant
Bit rate                                 : 1 510 Kbps
Channel(s)                               : 6 channels
Channel positions                        : Front: L C R, Side: L R, LFE
Sampling rate                            : 48.0 KHz
Bit depth                                : 24 bits
Compression mode                         : Lossy
Stream size                              : 1.47 GiB (13%)
Title                                    : DTS iTA
Language                                 : Italian
Default                                  : Yes
Forced                                   : No

Audio #2
ID                                       : 3
Format                                   : AC-3
Format/Info                              : Audio Coding 3
Mode extension                           : CM (complete main)
Muxing mode                              : Header stripping
Codec ID                                 : A_AC3
Duration                                 : 2h 19mn
Bit rate mode                            : Constant
Bit rate                                 : 640 Kbps
Channel(s)                               : 6 channels
Channel positions                        : Front: L C R, Side: L R, LFE
Sampling rate                            : 48.0 KHz
Bit depth                                : 16 bits
Compression mode                         : Lossy
Stream size                              : 639 MiB (6%)
Title                                    : AC3 iTA
Language                                 : Italian
Default                                  : No
Forced                                   : No

Text #1
ID                                       : 4
Format                                   : UTF-8
Codec ID                                 : S_TEXT/UTF8
Codec ID/Info                            : UTF-8 Plain Text
Title                                    : NON UDENTI iTA
Language                                 : Italian
Default                                  : Yes
Forced                                   : No

Text #2
ID                                       : 5
Format                                   : UTF-8
Codec ID                                 : S_TEXT/UTF8
Codec ID/Info                            : UTF-8 Plain Text
Title                                    : REGOLARI ENG
Language                                 : English
Default                                  : No
Forced                                   : No

Menu
00:00:00.000                             : :00:00:00.000
00:07:54.625                             : :00:07:54.625
00:19:21.083                             : :00:19:21.083
00:27:44.167                             : :00:27:44.167
00:37:56.500                             : :00:37:56.500
01:01:10.542                             : :01:01:10.542
01:14:30.208                             : :01:14:30.208
01:27:29.792                             : :01:27:29.792
01:41:23.750                             : :01:41:23.750
01:51:49.792                             : :01:51:49.792
02:00:14.917                             : :02:00:14.917
02:09:15.625                             : :02:09:15.625


[/spoiler]

[center]RINGRAZIAMENTI



RESTATE IN SEED ALTRIMENTI

[/center]


Info: Per scaricare devi usare un client come uTorrent o Transmission
AnnounceURL
udp://tracker.opentrackr.org:1337/announce
Hash 5ac4ca9fb91a29cf18cf2aabebc4b5aea1b9eb05
Peers seeds: 47 , leech: 50
Size 11.13 GB
Completato 459x
Aggiunto 20.01.18 - 00:01:08
Uploader   ppb1
Votazione (Voti: 0)


Condividi questo bittorrent:


html/blog:


bbcode/forum:




Aggiungi Commento


counter