* Dettagli Torrent   globale  | Commenti (0) 


- Leatherface (2017).H264.italian.english.Ac3-5.1.sub.ita.eng.MIRCrew -


Download via torrent:
Categoria bittorrent BDRip
Descrizione
Leatherface (2017).H264.italian.english.Ac3-5.1.sub.ita.eng.MIRCrew



NO FOUND ONLY ORIGINAL RELEASE



My release is always in double track audio italian and Original audio
for select it use VLC or dvd player home
not use wmp

Leatherface

(2017)








Titolo originale Leatherface
Lingua originale inglese
Paese di produzione Stati Uniti d'America
Anno 2017
Durata 110 minuti
Genere orrore, thriller, slasher
Regia Alexandre Bustillo e Julien Maury
Soggetto Tobe Hooper
Sceneggiatura Seth M. Sherwood
Produttore Christa Campbell, Lati Grobman, Carl Mazzocone, Les Weldon
Casa di produzione Campbell Grobman Films, Mainline Pictures, Millennium Films
Distribuzione (Italia) M2 Pictures
Musiche John Frizzell



   Stephen Dorff: Texas ranger Hal Hartman
   Lili Taylor: Verna Sawyer
   Sam Strike: Jackson/Jedidiah "Jed" Sawyer
   Vanessa Grasse: Lizzy
   Finn Jones: agente Sorrells
   Sam Coleman: Bud
   Jessica Madsen: Clarice
   James Bloor: Ike
   Christopher Adamson: dott. Lang, direttore del manicomio
   Dimo Alexiev: Drayton Sawyer
   Nathan Cooper: Avv. Barry Farnsworth
   Dejan Angelov: Nubbins Sawyer
   Boris Kabakchiev: Jed Sawyer da bambino
   Lorina Kamburova: Betty Hartman
   Julian Kostov: Ted Hardesty
   Hristo Milev: Nubbins Sawyer da bambino
   Velizar Peev: lo sceriffo della contea
   Ian Fisher: Dave
   Eduard Parsehyan: Nonno Sawyer
   Nicole Andrews: Tammy



Texas, 1955. Il compleanno del piccolo Jedidiah "Jed" Sawyer è piuttosto particolare, così com'è particolare la sua famiglia. Assieme alla torta fatta con panna e budella di maiale, il regalo del bambino è una sega a motore con cui uccidere la sua prima vittima, un vicino accusato di furto di maiali. e.......................



A teenage Leatherface escapes from a mental hospital with three other inmates, kidnapping a young nurse and taking her on a road trip from hell, while being pursued by a lawman out for revenge.    











[spoiler]
General
Unique ID                                : 316067917772399861165514086045112637727 (0xEDC8777B9AA5B314B5251C503980991F)
Complete name                            : Leatherface (2017).H264.ita.eng.sub.ita.eng-MIRCrew\Leatherface (2017).H264.ita.eng.sub.ita.eng-MIRCrew.mkv
Format                                   : Matroska
Format version                           : Version 2
File size                                : 1.35 GiB
Duration                                 : 1h 28mn
Overall bit rate                         : 2 187 Kbps
Movie name                               : MIRCrew
Encoded date                             : UTC 2018-01-19 15:53:29
Writing application                      : Lavf54.63.100
Writing library                          : Lavf54.63.100

Video
ID                                       : 1
Format                                   : AVC
Format/Info                              : Advanced Video Codec
Format profile                           : [email protected]
Format settings, CABAC                   : Yes
Format settings, ReFrames                : 2 frames
Codec ID                                 : V_MPEG4/ISO/AVC
Duration                                 : 1h 28mn
Bit rate                                 : 1 310 Kbps
Width                                    : 720 pixels
Height                                   : 304 pixels
Display aspect ratio                     : 2.40:1
Frame rate mode                          : Variable
Frame rate                               : 23.976 fps
Color space                              : YUV
Chroma subsampling                       : 4:2:0
Bit depth                                : 8 bits
Scan type                                : Progressive
Bits/(Pixel*Frame)                       : 0.250
Stream size                              : 787 MiB (57%)
Writing library                          : x264 core 130 r2273
Encoding settings                        : cabac=1 / ref=2 / deblock=1:0:0 / analyse=0x1:0x131 / me=hex / subme=7 / psy=1 / psy_rd=1.00:0.00 / mixed_ref=0 / me_range=16 / chroma_me=1 / trellis=1 / 8x8dct=0 / cqm=0 / deadzone=21,11 / fast_pskip=1 / chroma_qp_offset=-2 / threads=3 / lookahead_threads=1 / sliced_threads=0 / nr=0 / decimate=1 / interlaced=0 / bluray_compat=0 / constrained_intra=0 / bframes=3 / b_pyramid=0 / b_adapt=1 / b_bias=0 / direct=3 / weightb=1 / open_gop=0 / weightp=2 / keyint=230 / keyint_min=23 / scenecut=40 / intra_refresh=0 / rc_lookahead=40 / rc=abr / mbtree=1 / bitrate=1310 / ratetol=1.0 / qcomp=0.60 / qpmin=10 / qpmax=69 / qpstep=4 / vbv_maxrate=24000 / vbv_bufsize=24000 / nal_hrd=none / ip_ratio=1.40 / aq=1:1.00
Language                                 : Italian
Default                                  : Yes
Forced                                   : No
DURATION                                 : 01:27:41.173000000
NUMBER_OF_FRAMES                         : 126142
NUMBER_OF_BYTES                          : 4837870088
_STATISTICS_WRITING_APP                  : mkvmerge v15.0.0 ('Duel with the Devil') 64-bit
_STATISTICS_WRITING_DATE_UTC             : 2018-01-12 15:57:33
_STATISTICS_TAGS                         : BPS DURATION NUMBER_OF_FRAMES NUMBER_OF_BYTES

Audio #1
ID                                       : 2
Format                                   : AC-3
Format/Info                              : Audio Coding 3
Mode extension                           : CM (complete main)
Codec ID                                 : A_AC3
Duration                                 : 1h 28mn
Bit rate mode                            : Constant
Bit rate                                 : 448 Kbps
Channel(s)                               : 6 channels
Channel positions                        : Front: L C R, Side: L R, LFE
Sampling rate                            : 48.0 KHz
Bit depth                                : 16 bits
Compression mode                         : Lossy
Delay relative to video                  : 1mn 5s
Stream size                              : 282 MiB (20%)
Language                                 : Italian
Default                                  : No
Forced                                   : No
DURATION                                 : 01:28:07.264000000
NUMBER_OF_FRAMES                         : 165227
NUMBER_OF_BYTES                          : 422981120
_STATISTICS_WRITING_APP                  : mkvmerge v15.0.0 ('Duel with the Devil') 64-bit
_STATISTICS_WRITING_DATE_UTC             : 2018-01-12 15:57:33
_STATISTICS_TAGS                         : BPS DURATION NUMBER_OF_FRAMES NUMBER_OF_BYTES

Audio #2
ID                                       : 3
Format                                   : AC-3
Format/Info                              : Audio Coding 3
Mode extension                           : CM (complete main)
Codec ID                                 : A_AC3
Duration                                 : 1h 28mn
Bit rate mode                            : Constant
Bit rate                                 : 448 Kbps
Channel(s)                               : 6 channels
Channel positions                        : Front: L C R, Side: L R, LFE
Sampling rate                            : 48.0 KHz
Bit depth                                : 16 bits
Compression mode                         : Lossy
Delay relative to video                  : 1mn 5s
Stream size                              : 282 MiB (20%)
Language                                 : English
Default                                  : No
Forced                                   : No
DURATION                                 : 01:28:07.254000000
NUMBER_OF_FRAMES                         : 495680
NUMBER_OF_BYTES                          : 997308228
_STATISTICS_WRITING_APP                  : mkvmerge v15.0.0 ('Duel with the Devil') 64-bit
_STATISTICS_WRITING_DATE_UTC             : 2018-01-12 15:57:33
_STATISTICS_TAGS                         : BPS DURATION NUMBER_OF_FRAMES NUMBER_OF_BYTES

Menu
00:00:00.000                             : :00:00:00.000
00:11:56.341                             : :00:11:56.341
00:27:24.017                             : :00:27:24.017
00:40:44.317                             : :00:40:44.317
00:53:33.961                             : :00:53:33.961
01:05:26.381                             : :01:05:26.381
01:14:23.250                             : :01:14:23.250
01:24:15.092                             : :01:24:15.092




[/spoiler]



Info: Per scaricare devi usare un client come uTorrent o Transmission
AnnounceURL
udp://tracker.coppersurfer.tk:6969/announce
Hash 4ef1b41124534784d7f1e410504bd59381c3493a
Peers seeds: 55 , leech: 1
Size 1.35 GB
Completato 2211x
Aggiunto 19.01.18 - 19:01:42
Uploader   robbyrs
Votazione (Voti: 0)


Condividi questo bittorrent:


html/blog:


bbcode/forum:




Aggiungi Commento


counter