* Dettagli Torrent   globale  | Commenti (0) 


- Il sipario strappato (1966) Alfred Hitchcock.XviD.italian.english.Ac3.sub.ita.eng multisub.MIRCrew -


Download via torrent:
Categoria bittorrent BDRip
Descrizione
Torn Curtain - Il sipario strappato (1966) Alfred Hitchcock.italian.english.Ac3.sub.ita.eng+multisub.MIRCrew



NO FOUND ONLY ORIGINAL RELEASE



My release is always in double track audio italian and Original audio
for select it use VLC or dvd player home
not use wmp

Il sipario strappato

Torn Curtain

(1966)









Titolo originale Torn Curtain
Lingua originale inglese
Paese di produzione Stati Uniti d'America
Anno 1966
Durata 128 min
Rapporto 1,85:1
Genere spionaggio
Regia Alfred Hitchcock
Soggetto Brian Moore
Sceneggiatura Brian Moore
Produttore Alfred Hitchcock (non accreditato)
Casa di produzione Universal Pictures (con il nome Universal)
Fotografia John F. Warren
Montaggio Bud Hoffman
Musiche John Addison
Scenografia Frank Arrigo e Hein Heckroth Arredatore: George Milo
Costumi Edith Head (per Miss Andrews] Supervisore: Grady Hunt



   Paul Newman: Michael Armstrong
   Julie Andrews: Dr.ssa Sarah Sherman
   Lila Kedrova: Contessa Kuchinska
   Hansjörg Felmy: Heinrich Gerhard
   Tamara Tumanova: prima ballerina
   Wolfgang Kieling: Hermann Gromek
   Ludwig Donath: Prof.Gustav Lindt
   Günter Strack: Prof.Karl Manfred
   Gisela Fischer: Dr.ssa Koska
   Mort Mills: contadino
   Carolyn Conwell: moglie del contadino
   David Opatoshu: Herr Jakobi
   Arthur Gould-Porter: Freddy, il libraio
   Peter Lorre jr.: tassista
   Gloria Gorvin: Fräulein Mann
   Norbert Schiller: Prof.Gutman
   Robert Boon: Prof.Winkelmann



Nell'Europa della guerra fredda, il fisico americano Armstrong va a Copenaghen per un congresso internazionale. Da qui, tra l'incredulità di tutti, compresa quella della fidanzata, passa oltrecortina a lavorare con gli scienziati del blocco comunista, ma il suo vero intento è ben altro: Armstrong vuole intrufolarsi nei laboratori missilistici della Germania Est per carpire il segreto di una formula molto importante, a vantaggio degli Stati Uniti d'America. La sua assistente e fidanzata Sarah tuttavia, intromettendosi indebitamente, gli complica notevolmente la vita. ................



An American scientist publicly defects to East Germany as part of a cloak and dagger mission to find the solution for a formula resin before planning an escape back to the West.









[spoiler]
General
Complete name                            : Il sipario strappato - Torn Curtain (1966).ita.eng.multisub.MIRCrew\Il sipario strappato - Torn Curtain (1966).ita.eng.multisub.MIRCrew.avi
Format                                   : AVI
Format/Info                              : Audio Video Interleave
File size                                : 1.69 GiB
Duration                                 : 2h 7mn
Overall bit rate                         : 1 899 Kbps
Writing application                      : VirtualDubMod 1.5.10.2 (build 2540/release)
Writing library                          : VirtualDubMod build 2540/release

Video
ID                                       : 0
Format                                   : MPEG-4 Visual
Format profile                           : [email protected]
Format settings, BVOP                    : Yes
Format settings, QPel                    : No
Format settings, GMC                     : No warppoints
Format settings, Matrix                  : Default (H.263)
Codec ID                                 : XVID
Codec ID/Hint                            : XviD
Duration                                 : 2h 7mn
Bit rate                                 : 1 501 Kbps
Width                                    : 720 pixels
Height                                   : 384 pixels
Display aspect ratio                     : 1.875
Frame rate                               : 23.976 fps
Color space                              : YUV
Chroma subsampling                       : 4:2:0
Bit depth                                : 8 bits
Scan type                                : Progressive
Compression mode                         : Lossy
Bits/(Pixel*Frame)                       : 0.226
Stream size                              : 1.34 GiB (79%)

Audio #1
ID                                       : 1
Format                                   : AC-3
Format/Info                              : Audio Coding 3
Mode extension                           : CM (complete main)
Codec ID                                 : 2000
Duration                                 : 2h 7mn
Bit rate mode                            : Constant
Bit rate                                 : 192 Kbps
Channel(s)                               : 2 channels
Channel positions                        : Front: L R
Sampling rate                            : 48.0 KHz
Bit depth                                : 16 bits
Compression mode                         : Lossy
Stream size                              : 175 MiB (10%)
Alignment                                : Split accross interleaves
Interleave, duration                     : 42 ms (1.00 video frame)
Interleave, preload duration             : 500 ms

Audio #2
ID                                       : 2
Format                                   : AC-3
Format/Info                              : Audio Coding 3
Mode extension                           : CM (complete main)
Codec ID                                 : 2000
Duration                                 : 2h 7mn
Bit rate mode                            : Constant
Bit rate                                 : 192 Kbps
Channel(s)                               : 2 channels
Channel positions                        : Front: L R
Sampling rate                            : 48.0 KHz
Bit depth                                : 16 bits
Compression mode                         : Lossy
Stream size                              : 175 MiB (10%)
Alignment                                : Split accross interleaves
Interleave, duration                     : 42 ms (1.00 video frame)
Interleave, preload duration             : 500 ms



[/spoiler]



Info: Per scaricare devi usare un client come uTorrent o Transmission
AnnounceURL
udp://tracker.coppersurfer.tk:6969/announce
Hash e2e368320182bfc5b88aaecb06c16c73f27d0daa
Peers seeds: 11 , leech: 5
Size 1.72 GB
Completato 260x
Aggiunto 19.01.18 - 15:01:44
Uploader   robbyrs
Votazione (Voti: 0)


Condividi questo bittorrent:


html/blog:


bbcode/forum:




Aggiungi Commento


counter