* Dettagli Torrent   globale  | Commenti (0) 


- Serendipity - Quando l amore è magia (2001) Kate Beckinsale.H264.italian.english.Ac3.sub.ita-MIRCrew -


Download via torrent:
Categoria bittorrent BDRip
Descrizione
Serendipity - Quando l'amore è magia (2001) Kate Beckinsale.H264.italian.english.Ac3.sub.ita-MIRCrew



NO FOUND ONLY ORIGINAL RELEASE



My release is always in double track audio italian and Original audio
for select it use VLC or dvd player home
not use wmp

Quando l'amore è magia

Serendipity

(2001)








Titolo originale Serendipity
Paese di produzione USA
Anno 2001
Durata 90 minuti
Rapporto 1,85:1
Genere commedia, sentimentale
Regia Peter Chelsom
Sceneggiatura Marc Klein
Produttore Simon Fields, Robert Levy
Fotografia John de Borman
Montaggio Christopher Greenbury
Musiche Alan Silvestri
Scenografia Caroline Hanania
Costumi Mary Claire Hannan



   John Cusack: Jonathan Trager
   Kate Beckinsale: Sara Thomas
   Jeremy Piven: Dean Kansky
   Molly Shannon: Eve
   Bridget Moynahan: Halley Buchanan
   John Corbett: Lars Hammond
   Eugene Levy: impiegato al negozio



New York, periodo natalizio. In un'indaffarata giornata di shopping invernale, Jonathan Trager incontra Sara Thomas quando entrambi cercano di comprare lo stesso paio di guanti nel reparto accessori di Bloomingdale's. Lui vuole regalarli alla fidanzata, lei vuole tenerseli. I due, percependo una mutua attrazione, trascorrono le ore successive chiacchierando nella caffetteria Serendipity e pattinando sul ghiaccio a Central Park................



A couple search for each other years after the night they first met, fell in love, and separated, convinced that one day they'd end up together.











[spoiler]
General
Unique ID                                : 110230217693085167415530798356141605014 (0x52ED9154FE43C727399F4ECE3BAA8096)
Complete name                            : Serendipity (2001).H264.ita.eng.sub.ita.MIRCrew\Serendipity (2001).H264.ita.eng.sub.ita.MIRCrew.mkv
Format                                   : Matroska
Format version                           : Version 2
File size                                : 1.06 GiB
Duration                                 : 1h 30mn
Overall bit rate                         : 1 672 Kbps
Movie name                               : MIRCrew
Encoded date                             : UTC 2017-12-28 09:40:08
Writing application                      : Lavf54.63.100
Writing library                          : Lavf54.63.100

Video
ID                                       : 1
Format                                   : AVC
Format/Info                              : Advanced Video Codec
Format profile                           : [email protected]
Format settings, CABAC                   : Yes
Format settings, ReFrames                : 2 frames
Codec ID                                 : V_MPEG4/ISO/AVC
Duration                                 : 1h 30mn
Bit rate                                 : 1 290 Kbps
Width                                    : 720 pixels
Height                                   : 404 pixels
Display aspect ratio                     : 16:9
Frame rate mode                          : Variable
Frame rate                               : 23.976 fps
Color space                              : YUV
Chroma subsampling                       : 4:2:0
Bit depth                                : 8 bits
Scan type                                : Progressive
Bits/(Pixel*Frame)                       : 0.185
Stream size                              : 816 MiB (75%)
Title                                    : BDMux Paso77
Writing library                          : x264 core 130 r2273
Encoding settings                        : cabac=1 / ref=2 / deblock=1:0:0 / analyse=0x1:0x131 / me=hex / subme=7 / psy=1 / psy_rd=1.00:0.00 / mixed_ref=0 / me_range=16 / chroma_me=1 / trellis=1 / 8x8dct=0 / cqm=0 / deadzone=21,11 / fast_pskip=1 / chroma_qp_offset=-2 / threads=3 / lookahead_threads=1 / sliced_threads=0 / nr=0 / decimate=1 / interlaced=0 / bluray_compat=0 / constrained_intra=0 / bframes=3 / b_pyramid=0 / b_adapt=1 / b_bias=0 / direct=3 / weightb=1 / open_gop=0 / weightp=2 / keyint=230 / keyint_min=23 / scenecut=40 / intra_refresh=0 / rc_lookahead=40 / rc=abr / mbtree=1 / bitrate=1290 / ratetol=1.0 / qcomp=0.60 / qpmin=10 / qpmax=69 / qpstep=4 / vbv_maxrate=24000 / vbv_bufsize=24000 / nal_hrd=none / ip_ratio=1.40 / aq=1:1.00
Language                                 : Italian
Default                                  : Yes
Forced                                   : No
DURATION                                 : 01:30:57.535000000
NUMBER_OF_FRAMES                         : 130850
NUMBER_OF_BYTES                          : 6006037620
_STATISTICS_WRITING_APP                  : mkvmerge v18.0.0 ('Apricity') 64-bit
_STATISTICS_WRITING_DATE_UTC             : 2017-12-14 02:08:11
_STATISTICS_TAGS                         : BPS DURATION NUMBER_OF_FRAMES NUMBER_OF_BYTES

Audio #1
ID                                       : 2
Format                                   : AC-3
Format/Info                              : Audio Coding 3
Mode extension                           : CM (complete main)
Codec ID                                 : A_AC3
Duration                                 : 1h 30mn
Bit rate mode                            : Constant
Bit rate                                 : 192 Kbps
Channel(s)                               : 2 channels
Channel positions                        : Front: L R
Sampling rate                            : 48.0 KHz
Bit depth                                : 16 bits
Compression mode                         : Lossy
Delay relative to video                  : 1mn 5s
Stream size                              : 125 MiB (11%)
Title                                    : ITA
Language                                 : Italian
Default                                  : Yes
Forced                                   : No
DURATION                                 : 01:30:52.022000000
NUMBER_OF_FRAMES                         : 234799
NUMBER_OF_BYTES                          : 133426810
_STATISTICS_WRITING_APP                  : mkvmerge v18.0.0 ('Apricity') 64-bit
_STATISTICS_WRITING_DATE_UTC             : 2017-12-14 02:08:11
_STATISTICS_TAGS                         : BPS DURATION NUMBER_OF_FRAMES NUMBER_OF_BYTES

Audio #2
ID                                       : 3
Format                                   : AC-3
Format/Info                              : Audio Coding 3
Mode extension                           : CM (complete main)
Codec ID                                 : A_AC3
Duration                                 : 1h 30mn
Bit rate mode                            : Constant
Bit rate                                 : 192 Kbps
Channel(s)                               : 2 channels
Channel positions                        : Front: L R
Sampling rate                            : 48.0 KHz
Bit depth                                : 16 bits
Compression mode                         : Lossy
Delay relative to video                  : 1mn 5s
Stream size                              : 125 MiB (11%)
Title                                    : ENG
Language                                 : English
Default                                  : No
Forced                                   : No
DURATION                                 : 01:30:57.493000000
NUMBER_OF_FRAMES                         : 511640
NUMBER_OF_BYTES                          : 1029419680
_STATISTICS_WRITING_APP                  : mkvmerge v18.0.0 ('Apricity') 64-bit
_STATISTICS_WRITING_DATE_UTC             : 2017-12-14 02:08:11
_STATISTICS_TAGS                         : BPS DURATION NUMBER_OF_FRAMES NUMBER_OF_BYTES

Menu
00:00:00.000                             : :00:00:00.000
00:08:37.350                             : :00:08:37.350
00:12:00.762                             : :00:12:00.762
00:17:52.655                             : :00:17:52.655
00:22:34.687                             : :00:22:34.687
00:26:37.221                             : :00:26:37.221
00:32:18.186                             : :00:32:18.186
00:36:08.958                             : :00:36:08.958
00:39:24.904                             : :00:39:24.904
00:42:46.272                             : :00:42:46.272
00:49:38.100                             : :00:49:38.100
00:59:31.026                             : :00:59:31.026
01:07:54.570                             : :01:07:54.570
01:11:50.181                             : :01:11:50.181
01:16:14.278                             : :01:16:14.278
01:25:38.425                             : :01:25:38.425



[/spoiler]



Info: Per scaricare devi usare un client come uTorrent o Transmission
AnnounceURL
udp://tracker.coppersurfer.tk:6969/announce
Hash 6bf2ea2e54ae7a2f5ab6d048985dc782125f4b7b
Peers seeds: 11 , leech: 1
Size 1.06 GB
Completato 465x
Aggiunto 17.01.18 - 17:01:32
Uploader   robbyrs
Votazione (Voti: 0)


Condividi questo bittorrent:


html/blog:


bbcode/forum:




Aggiungi Commento


counter