Loading...
 * Dettagli Torrent   globale  | Commenti (2) 


- Cars 3 (2017).H264.italian.english.Ac3.sub.ita.eng.MIRCrew -


Download via torrent:
Categoria bittorrent BDRip
Descrizione
Cars 3 (2017).H264.italian.english.Ac3.sub.ita.eng.MIRCrew


NO FOUND ONLY ORIGINAL RELEASE



My release is always in double track audio italian and Original audio
for select it use VLC or dvd player home
not use wmp

Cars 3


(2017)







Lingua originale inglese
Paese di produzione Stati Uniti d'America
Anno 2017
Durata 102 min
Genere animazione, commedia, sportivo
Regia Brian Fee
Sceneggiatura Robert L. Baird, Dan Gerson
Produttore Kevin Reher
Produttore esecutivo John Lasseter
Casa di produzione Pixar Animation Studios
Distribuzione (Italia) Walt Disney Studios Motion Pictures
Montaggio Ken Schretzmann
Musiche Randy Newman



   Owen Wilson: Saetta McQueen
   Cristela Alonzo: Cruz Ramirez
   Armie Hammer: Jackson Storm
   Larry the Cable Guy: Carl Attrezzi
   Bonnie Hunt: Sally Carrera
   Cheech Marin: Ramon
   Michael Wallis: sceriffo
   Paul Dooley: sergente
   Tony Shalhoub: Luigi
   Guido Quaroni: Guido
   Katherine Helmond: Lizzie
   Jenifer Lewis: Flo
   Lloyd Sherr: Fillmore
   John Ratzenberger: Mack
   Kyle Petty: Cal Weathers
   Lewis Hamilton: Hamilton (Vettel)
   Lea DeLaria: Miss Fritter
   Jerome Ranft: Red
   Michael Wallis: Sceriffo
   Paul Newman: Doc Hudson (flashback)



Saetta McQueen continua la sua vita nelle corse, con i suoi amici Bob Swift e Cal Weathers. Durante una di queste corse Saetta viene sconfitto da Jackson Storm, una nuova macchina da corsa di ultima generazione. Qualche giorno dopo Storm diventa il nuovo campione ed il successo da lui conseguito costringe molti vecchi campioni....................



Lightning McQueen sets out to prove to a new generation of racers that he's still the best race car in the world.











[spoiler]
General
Unique ID                                : 248654137215942678685926327416420612509 (0xBB110B7C56800F7A9223D598A1C8B99D)
Complete name                            : Cars  3 (2017).H264.ita.eng.sub.ita.eng.MIRCrew\Cars  3 (2017).H264.ita.eng.sub.ita.eng.MIRCrew.mkv
Format                                   : Matroska
Format version                           : Version 2
File size                                : 1.47 GiB
Duration                                 : 1h 42mn
Overall bit rate                         : 2 057 Kbps
Movie name                               : MIRCrew
Encoded date                             : UTC 2018-01-04T09:08:19Z
Writing application                      : mkvmerge v5.4.0 ('Piper') built on Mar 10 2012 13:34:39
Writing library                          : Lavf55.12.0

Video
ID                                       : 1
Format                                   : AVC
Format/Info                              : Advanced Video Codec
Format profile                           : [email protected]
Format settings, CABAC                   : Yes
Format settings, ReFrames                : 4 frames
Muxing mode                              : Header stripping
Codec ID                                 : V_MPEG4/ISO/AVC
Duration                                 : 1h 42mn
Bit rate                                 : 1 300 Kbps
Width                                    : 720 pixels
Height                                   : 304 pixels
Display aspect ratio                     : 2.35:1
Frame rate mode                          : Variable
Frame rate                               : 23.976 fps
Color space                              : YUV
Chroma subsampling                       : 4:2:0
Bit depth                                : 8 bits
Scan type                                : Progressive
Bits/(Pixel*Frame)                       : 0.248
Stream size                              : 914 MiB (61%)
Title                                    : Cars (2017).H264.ita.eng.sub.ita.eng.MIRCrew
Writing library                          : x264 core 142 r2479 dd79a61
Encoding settings                        : cabac=1 / ref=3 / deblock=1:0:0 / analyse=0x3:0x113 / me=hex / subme=7 / psy=1 / psy_rd=1.00:0.00 / mixed_ref=1 / me_range=16 / chroma_me=1 / trellis=1 / 8x8dct=1 / cqm=0 / deadzone=21,11 / fast_pskip=1 / chroma_qp_offset=-2 / threads=3 / lookahead_threads=1 / sliced_threads=0 / nr=0 / decimate=1 / interlaced=0 / bluray_compat=0 / constrained_intra=0 / bframes=3 / b_pyramid=2 / b_adapt=1 / b_bias=0 / direct=1 / weightb=1 / open_gop=0 / weightp=2 / keyint=240 / keyint_min=24 / scenecut=40 / intra_refresh=0 / rc_lookahead=40 / rc=abr / mbtree=1 / bitrate=1300 / ratetol=1.0 / qcomp=0.60 / qpmin=0 / qpmax=69 / qpstep=4 / vbv_maxrate=62500 / vbv_bufsize=78125 / nal_hrd=none / filler=0 / ip_ratio=1.40 / aq=1:1.00
Language                                 : Italian
Default                                  : Yes
Forced                                   : No
Color primaries                          : BT.709-5, BT.1361, IEC 61966-2-4, SMPTE RP177
Transfer characteristics                 : BT.709-5, BT.1361
Matrix coefficients                      : BT.709-5, BT.1361, IEC 61966-2-4 709, SMPTE RP177

Audio #1
ID                                       : 2
Format                                   : AC-3
Format/Info                              : Audio Coding 3
Mode extension                           : CM (complete main)
Muxing mode                              : Header stripping
Codec ID                                 : A_AC3
Duration                                 : 1h 42mn
Bit rate mode                            : Constant
Bit rate                                 : 384 Kbps
Channel(s)                               : 2 channels
Channel positions                        : Front: L R
Sampling rate                            : 48.0 KHz
Bit depth                                : 16 bits
Compression mode                         : Lossy
Delay relative to video                  : -5ms
Stream size                              : 281 MiB (19%)
Title                                    : Ita Ac3 2.0
Language                                 : Italian
Default                                  : Yes
Forced                                   : No

Audio #2
ID                                       : 3
Format                                   : AC-3
Format/Info                              : Audio Coding 3
Mode extension                           : CM (complete main)
Muxing mode                              : Header stripping
Codec ID                                 : A_AC3
Duration                                 : 1h 42mn
Bit rate mode                            : Constant
Bit rate                                 : 384 Kbps
Channel(s)                               : 6 channels
Channel positions                        : Front: L C R, Side: L R, LFE
Sampling rate                            : 48.0 KHz
Bit depth                                : 16 bits
Compression mode                         : Lossy
Delay relative to video                  : -5ms
Stream size                              : 281 MiB (19%)
Title                                    : eng Ac3 5.1
Language                                 : English
Default                                  : No
Forced                                   : No

Menu
00:00:00.000                             : :00:00:00.000
00:04:57.338                             : :00:04:57.255
00:10:55.071                             : :00:10:54.988
00:13:59.547                             : :00:13:59.422
00:18:15.427                             : :00:18:15.344
00:21:07.724                             : :00:21:07.641
00:34:08.963                             : :00:34:08.880
00:37:52.186                             : :00:37:52.103
00:42:44.895                             : :00:42:44.812
00:49:44.481                             : :00:49:44.398
00:53:57.818                             : :00:53:57.734
00:58:17.786                             : :00:58:17.702
00:59:27.605                             : :00:59:27.522
01:02:16.024                             : :01:02:15.940
01:06:35.616                             : :01:06:35.533
01:08:33.192                             : :01:08:33.109
01:15:48.210                             : :01:15:48.126
01:20:57.936                             : :01:20:57.852
01:29:42.502                             : :01:29:42.418
01:32:17.115                             : :01:32:17.031
01:34:00.176                             : :01:34:00.092


[/spoiler]



Info: Per scaricare devi usare un client come uTorrent o Transmission
AnnounceURL
udp://tracker.coppersurfer.tk:6969/announce
Hash 934eee891fac78ace0b8181476d4e67ea316b226
Peers seeds: 276 , leech: 27
Size 1.47 GB
Completato 9336x
Aggiunto 04.01.18 - 15:01:54
Uploader   robbyrs
Votazione (Voti: 0)


Condividi questo bittorrent:


html/blog:


bbcode/forum:




Aggiungi Commento
Ultimi commenti
avatar   robbyrs   
no
05/01 19.51
  
scusate.. ultimamente quando apro il corsaro il mio antivirus impazzisce.. succede anche a voi??
05/01 18.16
Tutti commenti (2)


counter