* Dettagli Torrent   globale  | Commenti (0) 


- Nave fantasma - Ghost Ship (2002).H264.italian.english.Ac3-5.1.sub.ita.eng.MIRCrew -


Download via torrent:
Categoria bittorrent BDRip
Descrizione
Ghost Ship  - Nave fantasma (2002).H264.italian.english.Ac3-5.1.sub.ita.eng.MIRCrew


NO FOUND ONLY ORIGINAL RELEASE



My release is always in double track audio italian and Original audio
for select it use VLC or dvd player home
not use wmp

Nave fantasma

Ghost Ship

(2002)








Titolo originale Ghost Ship
Paese di produzione Stati Uniti d'America, Australia
Anno 2002
Durata 87 min
Rapporto 1.85:1
Genere orrore, thriller
Regia Steve Beck
Sceneggiatura Mark Hanlon, John Pogue
Produttore Gilbert Adler, Joel Silver, Robert Zemeckis, Susan Levin (co-produttore), Richard Mirisch (co-produttore)
Produttore esecutivo Bruce Berman, Steve Richards
Casa di produzione Warner Bros., Dark Castle Entertainment, Village Roadshow Pictures, NPV Entertainment
Fotografia Alec Wilder
Montaggio Roger Barton
Musiche John Frizzell, Chad Gray, Micha Liberman, Alec Wilder



   Gabriel Byrne: Capitano Sean Murphy
   Julianna Margulies: Maureen Epps
   Ron Eldard: Dodge
   Desmond Harrington: Jack Ferriman
   Isaiah Washington: Greer
   Alex Dimitriades: Santos
   Karl Urban: Munder
   Emily Browning: Katie Harwood
   Francesca Rettondini: Francesca



Nel 1962, il lussuoso transatlantico italiano Antonia Graza scomparve improvvisamente nelle acque del mar di Bering e nessuno ne ebbe più notizia. Quarant'anni dopo la carcassa della nave viene avvistata e un uomo, Jack Ferriman, contatta un equipaggio addetto al recupero dei relitti in mare, con lo scopo di perlustrare la nave e recuperare preziosi oggetti che si presumono esserci sul transatlantico



A salvage crew that discovers a long-lost 1962 passenger ship floating lifeless in a remote region of the Bering Sea soon notices, as they prepare to tow it back to land, that strange things happen. ...









General
Unique ID                                : 336871424354555076269389442153202408082 (0xFD6F138C269BCB23F8D6507D08C55A92)
Complete name                            : Nave fantasma - Ghost Ship (2002).H264.ita.eng.sub.ita.eng.MIRCrew.mkv
Format                                   : Matroska
Format version                           : Version 2
File size                                : 1.30 GiB
Duration                                 : 1h 30mn
Overall bit rate                         : 2 053 Kbps
Movie name                               : Nave fantasma - Ghost Ship (2002).H264.ita.eng.sub.ita.eng.MIRCrew
Encoded date                             : UTC 2017-11-22T09:51:49Z
Writing application                      : HandBrake 0.10.5 2016021100
Writing library                          : Lavf55.12.0

Video
ID                                       : 1
Format                                   : AVC
Format/Info                              : Advanced Video Codec
Format profile                           : [email protected]
Format settings, CABAC                   : Yes
Format settings, ReFrames                : 4 frames
Codec ID                                 : V_MPEG4/ISO/AVC
Duration                                 : 1h 30mn
Bit rate                                 : 1 300 Kbps
Width                                    : 720 pixels
Height                                   : 404 pixels
Display aspect ratio                     : 16:9
Frame rate mode                          : Variable / Variable
Frame rate                               : 23.976 fps
Color space                              : YUV
Chroma subsampling                       : 4:2:0
Bit depth                                : 8 bits
Scan type                                : Progressive
Bits/(Pixel*Frame)                       : 0.186
Stream size                              : 807 MiB (61%)
Writing library                          : x264 core 142 r2479 dd79a61
Encoding settings                        : cabac=1 / ref=3 / deblock=1:0:0 / analyse=0x3:0x113 / me=hex / subme=7 / psy=1 / psy_rd=1.00:0.00 / mixed_ref=1 / me_range=16 / chroma_me=1 / trellis=1 / 8x8dct=1 / cqm=0 / deadzone=21,11 / fast_pskip=1 / chroma_qp_offset=-2 / threads=3 / lookahead_threads=1 / sliced_threads=0 / nr=0 / decimate=1 / interlaced=0 / bluray_compat=0 / constrained_intra=0 / bframes=3 / b_pyramid=2 / b_adapt=1 / b_bias=0 / direct=1 / weightb=1 / open_gop=0 / weightp=2 / keyint=240 / keyint_min=24 / scenecut=40 / intra_refresh=0 / rc_lookahead=40 / rc=abr / mbtree=1 / bitrate=1300 / ratetol=1.0 / qcomp=0.60 / qpmin=0 / qpmax=69 / qpstep=4 / vbv_maxrate=62500 / vbv_bufsize=78125 / nal_hrd=none / filler=0 / ip_ratio=1.40 / aq=1:1.00
Default                                  : Yes
Forced                                   : No
Color primaries                          : BT.709-5, BT.1361, IEC 61966-2-4, SMPTE RP177
Transfer characteristics                 : BT.709-5, BT.1361
Matrix coefficients                      : BT.709-5, BT.1361, IEC 61966-2-4 709, SMPTE RP177

Audio #1
ID                                       : 2
Format                                   : AC-3
Format/Info                              : Audio Coding 3
Mode extension                           : CM (complete main)
Codec ID                                 : A_AC3
Duration                                 : 1h 30mn
Bit rate mode                            : Constant
Bit rate                                 : 384 Kbps
Channel(s)                               : 6 channels
Channel positions                        : Front: L C R, Side: L R, LFE
Sampling rate                            : 48.0 KHz
Bit depth                                : 16 bits
Compression mode                         : Lossy
Delay relative to video                  : 1mn 5s
Stream size                              : 249 MiB (19%)
Title                                    : Surround
Language                                 : Italian
Default                                  : Yes
Forced                                   : No

Audio #2
ID                                       : 3
Format                                   : AC-3
Format/Info                              : Audio Coding 3
Mode extension                           : CM (complete main)
Codec ID                                 : A_AC3
Duration                                 : 1h 30mn
Bit rate mode                            : Constant
Bit rate                                 : 384 Kbps
Channel(s)                               : 6 channels
Channel positions                        : Front: L C R, Side: L R, LFE
Sampling rate                            : 48.0 KHz
Bit depth                                : 16 bits
Compression mode                         : Lossy
Delay relative to video                  : 1mn 5s
Stream size                              : 249 MiB (19%)
Title                                    : Surround
Language                                 : English
Default                                  : No
Forced                                   : No

Menu
00:00:00.000                             : :Chapter 1
00:03:37.644                             : :Chapter 2
00:05:31.382                             : :Chapter 3
00:11:03.631                             : :Chapter 4
00:14:28.419                             : :Chapter 5
00:18:12.101                             : :Chapter 6
00:22:14.426                             : :Chapter 7
00:26:43.695                             : :Chapter 8
00:30:52.235                             : :Chapter 9
00:35:11.494                             : :Chapter 10
00:37:10.613                             : :Chapter 11
00:40:28.394                             : :Chapter 12
00:43:24.862                             : :Chapter 13
00:46:49.817                             : :Chapter 14
00:49:53.375                             : :Chapter 15
00:53:53.907                             : :Chapter 16
00:55:28.126                             : :Chapter 17
00:56:48.498                             : :Chapter 18
00:59:10.223                             : :Chapter 19
01:02:02.270                             : :Chapter 20
01:04:24.120                             : :Chapter 21
01:07:21.297                             : :Chapter 22
01:12:25.601                             : :Chapter 23
01:15:12.518                             : :Chapter 24
01:18:53.447                             : :Chapter 25
01:21:49.706                             : :Chapter 26
01:25:11.991                             : :Chapter 27
01:26:15.722                             : :Chapter 28





Info: Per scaricare devi usare un client come uTorrent o Transmission
AnnounceURL
udp://tracker.coppersurfer.tk:6969/announce
Hash 0c1df175b5bef17cdc85661bd96b82b1008e8a7e
Peers seeds: 29 , leech: 1
Size 1.30 GB
Completato 1332x
Aggiunto 26.11.17 - 15:11:36
Uploader   robbyrs
Votazione (Voti: 0)


Condividi questo bittorrent:


html/blog:


bbcode/forum:




Aggiungi Commento


counter