* Dettagli Torrent   globale  | Commenti (1) 


- Annabelle 2 Creation (2017).H264.italian.english.Ac3-5.1.sub.NUita.eng.MIRCrew -


Download via torrent:
Categoria bittorrent BDRip
Descrizione
Annabelle: Creation - Annabelle 2 Creation (2017).H264.italian.english.Ac3-5.1.sub.NUita.eng.MIRCrew



NO FOUND ONLY ORIGINAL RELEASE



My release is always in double track audio italian and Original audio
for select it use VLC or dvd player home
not use wmp

Annabelle 2 Creation - Annabelle: Creation (2017)








GENERE: Horror, Thriller
ANNO: 2017
REGIA: David F. Sandberg
PAESE: USA
DURATA: 109 Min
DISTRIBUZIONE: Warner Bros.



Stephanie Sigman, Alicia Vela-Bailey, Miranda Otto, Anthony LaPaglia, Lulu Wilson, Adam Bartley, Philippa Anne Coulthard, Grace Fulton



Dopo che il loro istituto è andato distrutto, un innocente gruppetto di orfanelle, accompagnato da sorella Charlotte (Stephanie Sigman), viene accolto nell'imponente casa coloniale di un fabbricante di bambole e sua moglie, Samuel ed Esther Mullins (Anthony LaPaglia e Miranda Otto). Entusiaste di abitare in un "castello" grande come quello delle favole,...........



12 years after the tragic death of their little girl, a dollmaker and his wife welcome a nun and several girls from a shuttered orphanage into their home, where they soon become the target of the dollmaker's possessed creation, Annabelle.  ....












General
Unique ID                                : 51401158778839322930551772239992871727 (0x26AB80CA4C87BF43072F0EC71F3A5B2F)
Complete name                            : Annabelle 2 Creation (2017).H264.ita.eng.sub.NUita.eng.MIRCrew\Annabelle 2 Creation (2017).H264.ita.eng.sub.ita.eng.MIRCrew.mkv
Format                                   : Matroska
Format version                           : Version 2
File size                                : 1.57 GiB
Duration                                 : 1h 49mn
Overall bit rate                         : 2 044 Kbps
Movie name                               : Annabelle 2 Creation (2017).H264.ita.eng.sub.ita.eng.MIRCrew
Encoded date                             : UTC 2017-11-21T11:33:15Z
Writing application                      : HandBrake 0.10.5 2016021100
Writing library                          : Lavf55.12.0

Video
ID                                       : 1
Format                                   : AVC
Format/Info                              : Advanced Video Codec
Format profile                           : [email protected]
Format settings, CABAC                   : Yes
Format settings, ReFrames                : 4 frames
Codec ID                                 : V_MPEG4/ISO/AVC
Duration                                 : 1h 49mn
Bit rate                                 : 1 290 Kbps
Width                                    : 720 pixels
Height                                   : 304 pixels
Display aspect ratio                     : 2.35:1
Frame rate mode                          : Variable / Variable
Frame rate                               : 23.976 fps
Color space                              : YUV
Chroma subsampling                       : 4:2:0
Bit depth                                : 8 bits
Scan type                                : Progressive
Bits/(Pixel*Frame)                       : 0.246
Stream size                              : 969 MiB (60%)
Writing library                          : x264 core 142 r2479 dd79a61
Encoding settings                        : cabac=1 / ref=3 / deblock=1:0:0 / analyse=0x3:0x113 / me=hex / subme=7 / psy=1 / psy_rd=1.00:0.00 / mixed_ref=1 / me_range=16 / chroma_me=1 / trellis=1 / 8x8dct=1 / cqm=0 / deadzone=21,11 / fast_pskip=1 / chroma_qp_offset=-2 / threads=3 / lookahead_threads=1 / sliced_threads=0 / nr=0 / decimate=1 / interlaced=0 / bluray_compat=0 / constrained_intra=0 / bframes=3 / b_pyramid=2 / b_adapt=1 / b_bias=0 / direct=1 / weightb=1 / open_gop=0 / weightp=2 / keyint=240 / keyint_min=24 / scenecut=40 / intra_refresh=0 / rc_lookahead=40 / rc=abr / mbtree=1 / bitrate=1290 / ratetol=1.0 / qcomp=0.60 / qpmin=0 / qpmax=69 / qpstep=4 / vbv_maxrate=62500 / vbv_bufsize=78125 / nal_hrd=none / filler=0 / ip_ratio=1.40 / aq=1:1.00
Default                                  : Yes
Forced                                   : No
Color primaries                          : BT.601-6 525, BT.1358 525, BT.1700 NTSC, SMPTE 170M
Transfer characteristics                 : BT.709-5, BT.1361
Matrix coefficients                      : BT.601-6 525, BT.1358 525, BT.1700 NTSC, SMPTE 170M

Audio #1
ID                                       : 2
Format                                   : AC-3
Format/Info                              : Audio Coding 3
Mode extension                           : CM (complete main)
Codec ID                                 : A_AC3
Duration                                 : 1h 49mn
Bit rate mode                            : Constant
Bit rate                                 : 384 Kbps
Channel(s)                               : 6 channels
Channel positions                        : Front: L C R, Side: L R, LFE
Sampling rate                            : 48.0 KHz
Bit depth                                : 16 bits
Compression mode                         : Lossy
Delay relative to video                  : 1mn 5s
Stream size                              : 301 MiB (19%)
Title                                    : Surround
Language                                 : Italian
Default                                  : Yes
Forced                                   : No

Audio #2
ID                                       : 3
Format                                   : AC-3
Format/Info                              : Audio Coding 3
Mode extension                           : CM (complete main)
Codec ID                                 : A_AC3
Duration                                 : 1h 49mn
Bit rate mode                            : Constant
Bit rate                                 : 384 Kbps
Channel(s)                               : 6 channels
Channel positions                        : Front: L C R, Side: L R, LFE
Sampling rate                            : 48.0 KHz
Bit depth                                : 16 bits
Compression mode                         : Lossy
Delay relative to video                  : 1mn 5s
Stream size                              : 301 MiB (19%)
Title                                    : Surround
Language                                 : English
Default                                  : No
Forced                                   : No

Text #1
ID                                       : 4
Format                                   : ASS
Codec ID                                 : S_TEXT/ASS
Codec ID/Info                            : Advanced Sub Station Alpha
Compression mode                         : Lossless
Language                                 : Italian
Default                                  : No
Forced                                   : No

Text #2
ID                                       : 5
Format                                   : ASS
Codec ID                                 : S_TEXT/ASS
Codec ID/Info                            : Advanced Sub Station Alpha
Compression mode                         : Lossless
Language                                 : Italian
Default                                  : No
Forced                                   : No

Text #3
ID                                       : 6
Format                                   : ASS
Codec ID                                 : S_TEXT/ASS
Codec ID/Info                            : Advanced Sub Station Alpha
Compression mode                         : Lossless
Language                                 : English
Default                                  : No
Forced                                   : No

Menu
00:00:00.000                             : :Chapter 1
00:11:25.403                             : :Chapter 2
00:20:35.118                             : :Chapter 3
00:30:33.341                             : :Chapter 4
00:42:03.656                             : :Chapter 5
00:52:39.291                             : :Chapter 6
01:03:12.548                             : :Chapter 7
01:13:14.733                             : :Chapter 8
01:23:55.665                             : :Chapter 9
01:33:19.353                             : :Chapter 10
01:43:27.669                             : :Chapter 11





Info: Per scaricare devi usare un client come uTorrent o Transmission
AnnounceURL
udp://tracker.coppersurfer.tk:6969/announce
Hash 3bc583c29fa1d0cc9891bed70afcf90d1b3d02cc
Peers seeds: 78 , leech: 10
Size 1.57 GB
Completato 4000x
Aggiunto 21.11.17 - 15:11:56
Uploader   robbyrs
Votazione (Voti: 0)


Condividi questo bittorrent:


html/blog:


bbcode/forum:




Aggiungi Commento
Ultimi commenti
 ninovitaninovita   
non riesco ad inviare dalla email utorrent 2.2.1 portatile su facebook cerca rambo rombo supermen nel mio profilo ce un link per scaricarlo e il miglior utorrent mai provato in 10 anni ciao
24/11 13.22
Tutti commenti (1)


counter