* Dettagli Torrent   globale  | Commenti (0) 


- Baywatch (2017) Extended.Italian.English.Ac3.5.1.sub.ita.eng.iCV-MIRCrew -


Download via torrent:
Categoria bittorrent BDRip
Descrizione
Baywatch (2017) Extended.Italian.English.Ac3.5.1.sub.ita.eng.iCV-MIRCrew


[center]by www.icv-crew.org


NO FOUND ONLY ORIGINAL RELEASE



My release is always in double track audio italian and Original audio
for select it use VLC or dvd player home
not use wmp

Baywatch (2017) - Extended.








Titolo originale Baywatch
Lingua originale inglese
Paese di produzione Stati Uniti d'America
Anno 2017
Durata 119 min
Rapporto 2,39 : 1
Genere azione, commedia
Regia Seth Gordon
Soggetto dalla serie tv creata da Michael Berk, Gregory J. Bonann e Douglas Schwartz
da una storia di Robert Ben Garant, Thomas Lennon, David Ronn e Jay Scherick
Sceneggiatura Damian Shannon, Mark Swift
Produttore Michael Berk, Gregory J. Bonann, Beau Flynn, Tom Pollock, Ivan Reitman, Douglas Schwartz
Produttore esecutivo Dwayne Johnson, Ali Bell, David Ellison, Dany Garcia, Dana Goldberg, Don Granger, Joe Medjuck, Mary Rohlich, Louise Rosner
Casa di produzione The Montecito Picture Company, Paramount Pictures, Skydance Media
Distribuzione (Italia) Universal Pictures
Fotografia Eric Steelberg
Effetti speciali Elia P. Popov
Musiche Christopher Lennertz
Scenografia Shepherd Frankel
Costumi Dayna Pink
Trucco Ellen Arden, Randi Owens Arroyo, Travis Pates




   Dwayne Johnson: Mitch Buchanan
   Zac Efron: Matt Brody
   Alexandra Daddario: Summer Quinn
   Kelly Rohrbach: C. J. Parker
   Ilfenesh Hadera: Stephanie Holden
   Priyanka Chopra: Victoria Leeds
   Jon Bass: Ronnie
   Yahya Abdul-Mateen II: Garner Ellerbee
   Rob Huebel: capitano Thorpe
   Hannibal Buress: Dave
   Jack Kesy: Leon
   Amin Joseph: Frankie
   Izabel Goulart: Amber
   Charlotte McKinney: Julia




Il tenente Mitch Buchannon è il caposquadra di un gruppo di nuove reclute nelle spiagge di Emerald Bay, in Florida. Tra queste vi sono il campione nuotatore Matt Brody, l'intelligente Summer Quinn e l'imbranato Ronnie...........



Devoted lifeguard Mitch Buchannon butts heads with a brash new recruit, as they uncover a criminal plot that threatens the future of the bay.










[spoiler]
General
Complete name                            : Baywatch (2017) - Extended.ita.eng.sub.ita.eng.iCV-MIRCrew.avi
Format                                   : AVI
Format/Info                              : Audio Video Interleave
Format profile                           : OpenDML
File size                                : 2.05 GiB
Duration                                 : 2h 1mn
Overall bit rate                         : 2 412 Kbps
Movie name                               : icv-crew
Writing application                      : VirtualDubMod 1.5.10.2 (build 2540/release)
Writing library                          : VirtualDubMod build 2540/release

Video
ID                                       : 0
Format                                   : MPEG-4 Visual
Format profile                           : [email protected]
Format settings, BVOP                    : No
Format settings, QPel                    : No
Format settings, GMC                     : No warppoints
Format settings, Matrix                  : Default (H.263)
Codec ID                                 : XVID
Codec ID/Hint                            : XviD
Duration                                 : 2h 1mn
Bit rate                                 : 1 498 Kbps
Width                                    : 720 pixels
Height                                   : 300 pixels
Display aspect ratio                     : 2.40:1
Frame rate                               : 23.976 fps
Color space                              : YUV
Chroma subsampling                       : 4:2:0
Bit depth                                : 8 bits
Scan type                                : Progressive
Compression mode                         : Lossy
Bits/(Pixel*Frame)                       : 0.289
Stream size                              : 1.27 GiB (62%)
Writing library                          : XviD 64

Audio #1
ID                                       : 1
Format                                   : AC-3
Format/Info                              : Audio Coding 3
Mode extension                           : CM (complete main)
Codec ID                                 : 2000
Duration                                 : 2h 1mn
Bit rate mode                            : Constant
Bit rate                                 : 448 Kbps
Channel(s)                               : 6 channels
Channel positions                        : Front: L C R, Side: L R, LFE
Sampling rate                            : 48.0 KHz
Bit depth                                : 16 bits
Compression mode                         : Lossy
Stream size                              : 389 MiB (19%)
Alignment                                : Split accross interleaves
Interleave, duration                     : 42 ms (1.00 video frame)
Interleave, preload duration             : 500 ms

Audio #2
ID                                       : 2
Format                                   : AC-3
Format/Info                              : Audio Coding 3
Mode extension                           : CM (complete main)
Codec ID                                 : 2000
Duration                                 : 2h 1mn
Bit rate mode                            : Constant
Bit rate                                 : 448 Kbps
Channel(s)                               : 6 channels
Channel positions                        : Front: L C R, Side: L R, LFE
Sampling rate                            : 48.0 KHz
Bit depth                                : 16 bits
Compression mode                         : Lossy
Stream size                              : 389 MiB (19%)
Alignment                                : Split accross interleaves
Interleave, duration                     : 42 ms (1.00 video frame)
Interleave, preload duration             : 500 ms



[/spoiler]

[/center]

Info: Per scaricare devi usare un client come uTorrent o Transmission
AnnounceURL
udp://tracker.coppersurfer.tk:6969/announce
Hash 778e7870626a6d72a33a4f04297ef377efeb3f85
Peers seeds: 127 , leech: 23
Size 2.05 GB
Completato 14271x
Aggiunto 25.09.17 - 05:09:45
Uploader   robbyrs
Votazione (Voti: 0)


Condividi questo bittorrent:


html/blog:


bbcode/forum:




Aggiungi Commento


counter