* Dettagli Torrent   globale  | Commenti (1) 


- Dragonheart 4 - La battaglia per lHeartfire (2017).H264.Italian.English.Ac3.5.1.sub.ita.eng.iCV-MIR -


Download via torrent:
Categoria bittorrent BDRip
Descrizione
Dragonheart: Battle for the Heartfire - Dragonheart 4 - La battaglia per l'Heartfire (2017).H264.Italian.English.Ac3.5.1.sub.ita.eng.iCV-MIRCrew

[center]by www.icv-crew.org


NO FOUND ONLY ORIGINAL RELEASE



My release is always in double track audio italian and Original audio
for select it use VLC or dvd player home
not use wmp

Dragonheart 4 - La battaglia per l'Heartfire - Dragonheart: Battle for the Heartfire (2017)







Titolo originale Dragonheart: Battle for the Heartfire
Lingua originale inglese
Paese di produzione Regno Unito, Stati Uniti d'America
Anno 2017
Durata 98 min
Genere avventura, fantastico
Regia Patrik Syversen
Sceneggiatura Matthew Feitshans
Produttore Raffaella De Laurentiis
Musiche Mark McKenzie



   Tom Rhys Harries: Edric
   Jessamine-Bliss Bell: Meghan
   Tamzin Merchant: regina Rhonu
   André Eriksen: Thorgrim
   Richard Cordery: Earl Robert
   Martin Hutson: Osmund
   Delroy Brown: Marrakar
   Turlough Convery: Walter
   Marte Germaine Christensen: Sable



A seguito della morte del vecchio re Gareth, con cui Drago, il drago del film precedente, aveva un particolare legame, i suoi due nipoti gemelli si scontrano per la conquista dell'eredità del regno avendo entrambi il potere del drago................



A dragon known as Drago tries to end the rivalry between a brother and sister, both having dragon-like powers, who are after the throne of their grandfather while a new threat steals Drago source of power.








[spoiler]
General
Unique ID                                : 107094436654832704356063014843816550406 (0x5091A363E60DEFBAA57D8DD894532006)
Complete name                            : Dragonheart 4 - La battaglia per l'Heartfire (2017).H264.ita.eng.sub.ita.eng.iCV-MIRCrew.mkv
Format                                   : Matroska
Format version                           : Version 2
File size                                : 1.51 GiB
Duration                                 : 1h 37mn
Overall bit rate                         : 2 209 Kbps
Movie name                               : www.icv-crew.org
Encoded date                             : UTC 2017-08-05 17:31:48
Writing application                      : Lavf54.63.100
Writing library                          : Lavf54.63.100
COPYRIGHT                                : robbyrs
DATE                                     : 2017

Video
ID                                       : 1
Format                                   : AVC
Format/Info                              : Advanced Video Codec
Format profile                           : [email protected]
Format settings, CABAC                   : Yes
Format settings, ReFrames                : 2 frames
Codec ID                                 : V_MPEG4/ISO/AVC
Duration                                 : 1h 37mn
Bit rate                                 : 1 290 Kbps
Width                                    : 720 pixels
Height                                   : 404 pixels
Display aspect ratio                     : 16:9
Frame rate mode                          : Variable
Frame rate                               : 23.976 fps
Color space                              : YUV
Chroma subsampling                       : 4:2:0
Bit depth                                : 8 bits
Scan type                                : Progressive
Bits/(Pixel*Frame)                       : 0.185
Stream size                              : 887 MiB (57%)
Writing library                          : x264 core 130 r2273
Encoding settings                        : cabac=1 / ref=2 / deblock=1:0:0 / analyse=0x1:0x131 / me=hex / subme=7 / psy=1 / psy_rd=1.00:0.00 / mixed_ref=0 / me_range=16 / chroma_me=1 / trellis=1 / 8x8dct=0 / cqm=0 / deadzone=21,11 / fast_pskip=1 / chroma_qp_offset=-2 / threads=12 / lookahead_threads=2 / sliced_threads=0 / nr=0 / decimate=1 / interlaced=0 / bluray_compat=0 / constrained_intra=0 / bframes=3 / b_pyramid=0 / b_adapt=1 / b_bias=0 / direct=3 / weightb=1 / open_gop=0 / weightp=2 / keyint=230 / keyint_min=23 / scenecut=40 / intra_refresh=0 / rc_lookahead=40 / rc=abr / mbtree=1 / bitrate=1290 / ratetol=1.0 / qcomp=0.60 / qpmin=10 / qpmax=69 / qpstep=4 / vbv_maxrate=24000 / vbv_bufsize=24000 / nal_hrd=none / ip_ratio=1.40 / aq=1:1.00
Language                                 : Italian
Default                                  : Yes
Forced                                   : No
DURATION                                 : 01:37:45.068000000
NUMBER_OF_FRAMES                         : 140621
NUMBER_OF_BYTES                          : 8320069849
_STATISTICS_WRITING_APP                  : mkvmerge v8.3.0 ('Over the Horizon') 64bit
_STATISTICS_WRITING_DATE_UTC             : 2017-07-27 19:10:54
_STATISTICS_TAGS                         : BPS DURATION NUMBER_OF_FRAMES NUMBER_OF_BYTES

Audio #1
ID                                       : 2
Format                                   : AC-3
Format/Info                              : Audio Coding 3
Mode extension                           : CM (complete main)
Codec ID                                 : A_AC3
Duration                                 : 1h 37mn
Bit rate mode                            : Constant
Bit rate                                 : 448 Kbps
Channel(s)                               : 6 channels
Channel positions                        : Front: L C R, Side: L R, LFE
Sampling rate                            : 48.0 KHz
Bit depth                                : 16 bits
Compression mode                         : Lossy
Delay relative to video                  : 1mn 5s
Stream size                              : 313 MiB (20%)
Language                                 : Italian
Default                                  : Yes
Forced                                   : No
DURATION                                 : 01:37:45.110000000
NUMBER_OF_FRAMES                         : 549854
NUMBER_OF_BYTES                          : 563050496
_STATISTICS_WRITING_APP                  : mkvmerge v8.3.0 ('Over the Horizon') 64bit
_STATISTICS_WRITING_DATE_UTC             : 2017-07-27 19:10:54
_STATISTICS_TAGS                         : BPS DURATION NUMBER_OF_FRAMES NUMBER_OF_BYTES

Audio #2
ID                                       : 3
Format                                   : AC-3
Format/Info                              : Audio Coding 3
Mode extension                           : CM (complete main)
Codec ID                                 : A_AC3
Duration                                 : 1h 37mn
Bit rate mode                            : Constant
Bit rate                                 : 448 Kbps
Channel(s)                               : 6 channels
Channel positions                        : Front: L C R, Side: L R, LFE
Sampling rate                            : 48.0 KHz
Bit depth                                : 16 bits
Compression mode                         : Lossy
Delay relative to video                  : 1mn 5s
Stream size                              : 313 MiB (20%)
Language                                 : English
Default                                  : No
Forced                                   : No
DURATION                                 : 01:37:45.110000000
NUMBER_OF_FRAMES                         : 549854
NUMBER_OF_BYTES                          : 2745057312
_STATISTICS_WRITING_APP                  : mkvmerge v8.3.0 ('Over the Horizon') 64bit
_STATISTICS_WRITING_DATE_UTC             : 2017-07-27 19:10:54
_STATISTICS_TAGS                         : BPS DURATION NUMBER_OF_FRAMES NUMBER_OF_BYTES

Text #1
ID                                       : 4
Format                                   : VobSub
Codec ID                                 : S_VOBSUB
Codec ID/Info                            : The same subtitle format used on DVDs
Title                                    : FORCED
Language                                 : Italian
Default                                  : Yes
Forced                                   : No
DURATION                                 : 01:34:08.990000000
NUMBER_OF_FRAMES                         : 4
NUMBER_OF_BYTES                          : 7416
_STATISTICS_WRITING_APP                  : mkvmerge v8.3.0 ('Over the Horizon') 64bit
_STATISTICS_WRITING_DATE_UTC             : 2017-07-27 19:10:54
_STATISTICS_TAGS                         : BPS DURATION NUMBER_OF_FRAMES NUMBER_OF_BYTES

Text #2
ID                                       : 5
Format                                   : VobSub
Codec ID                                 : S_VOBSUB
Codec ID/Info                            : The same subtitle format used on DVDs
Title                                    : Italian
Language                                 : Italian
Default                                  : No
Forced                                   : No
DURATION                                 : 01:36:07.150000000
NUMBER_OF_FRAMES                         : 893
NUMBER_OF_BYTES                          : 2619785
_STATISTICS_WRITING_APP                  : mkvmerge v8.3.0 ('Over the Horizon') 64bit
_STATISTICS_WRITING_DATE_UTC             : 2017-07-27 19:10:54
_STATISTICS_TAGS                         : BPS DURATION NUMBER_OF_FRAMES NUMBER_OF_BYTES

Text #3
ID                                       : 6
Format                                   : VobSub
Codec ID                                 : S_VOBSUB
Codec ID/Info                            : The same subtitle format used on DVDs
Title                                    : English
Language                                 : English
Default                                  : No
Forced                                   : No
DURATION                                 : 01:33:25.440000000
NUMBER_OF_FRAMES                         : 1174
NUMBER_OF_BYTES                          : 3515256
_STATISTICS_WRITING_APP                  : mkvmerge v8.3.0 ('Over the Horizon') 64bit
_STATISTICS_WRITING_DATE_UTC             : 2017-07-27 19:10:54
_STATISTICS_TAGS                         : BPS DURATION NUMBER_OF_FRAMES NUMBER_OF_BYTES

Menu
00:00:00.000                             : :00:00:00.000
00:03:39.344                             : :00:03:39.344
00:07:40.502                             : :00:07:40.502
00:13:19.298                             : :00:13:19.298
00:19:46.602                             : :00:19:46.602
00:24:57.621                             : :00:24:57.621
00:30:13.186                             : :00:30:13.186
00:35:54.652                             : :00:35:54.652
00:39:54.350                             : :00:39:54.350
00:45:37.109                             : :00:45:37.109
00:48:57.560                             : :00:48:57.560
00:51:23.831                             : :00:51:23.831
00:56:22.588                             : :00:56:22.588
01:00:07.979                             : :01:00:07.979
01:06:41.873                             : :01:06:41.873
01:14:41.602                             : :01:14:41.602
01:19:00.486                             : :01:19:00.486
01:22:40.998                             : :01:22:40.998
01:29:40.625                             : :01:29:40.625
01:34:10.687                             : :01:34:10.687


[/spoiler]

[/center]

Info: Per scaricare devi usare un client come uTorrent o Transmission
AnnounceURL
udp://tracker.coppersurfer.tk:6969/announce
Hash a60daa543eaaeb0d0ccc079b9c9501d9ad85daaf
Peers seeds: 60 , leech: 28
Size 1.52 GB
Completato 3172x
Aggiunto 24.09.17 - 10:09:30
Uploader   robbyrs
Votazione (Voti: 0)


Condividi questo bittorrent:


html/blog:


bbcode/forum:




Aggiungi Commento
Ultimi commenti
 jackal98jackal98   
grazie
25/09 02.19
Tutti commenti (1)


counter