* Dettagli Torrent   globale  | Commenti (0) 


- Yazuka Apocalypse (2015).H264.Italian.Jpn.Ac3.5.1.sub.ita.iCV-MIRCrew -


Download via torrent:
Categoria bittorrent BDRip
Descrizione
Yazuka Apocalypse (2015).H264.Italian.Jpn.Ac3.5.1.sub.ita.iCV-MIRCrew

[center]by www.icv-crew.org


NO FOUND ONLY ORIGINAL RELEASE



My release is always in double track audio italian and Original audio
for select it use VLC or dvd player home
not use wmp

Yazuka Apocalypse (2015)







Titolo originale ?????
Gokud? Daisens?
Lingua originale giapponese
Paese di produzione Giappone
Anno 2015
Durata 115 min
Genere orrore, azione, grottesco, fantastico
Regia Takashi Miike
Sceneggiatura Yoshitaka Yamaguchi
Distribuzione (Italia) Midnight Factory
Musiche K?ji End?




   Hayato Ichihara: Akira Kageyama
   Yayan Ruhian: Kyoken
   Lily Franky: Genyo Kamiura
   Riko Narumi: Kyoko
   Reiko Takashima: Sosuke Zenba
   Tei Ryushin: Bateren
   Yoshiki Arizono: Gataro
   Masanori Mimoto: Kaeru-kun



Kamiura è un vecchio e rispettato boss yakuza di un imprecisata cittadina del Giapponese che si occupa di proteggere i suoi abitanti mantenendo la pace. e.....................



In the ruthless underground world of the yakuza, no one is more legendary than boss Kamiura. Rumored to be invincible, the truth is he is a vampire-a bloodsucking yakuza vampire boss! Among...











[spoiler]
General
Unique ID                                : 239121377019463895291931957575787549382 (0xB3E51A1EEEAB9EB600233B64799912C6)
Complete name                            : Yazuka Apocalypse (2015).H264.ita.jpn.sub.ita.iCV-MIRCrew.mkv
Format                                   : Matroska
Format version                           : Version 2
File size                                : 1.75 GiB
Duration                                 : 1h 55mn
Overall bit rate                         : 2 178 Kbps
Movie name                               : www.icv-crew.org
Encoded date                             : UTC 2017-08-28 20:38:21
Writing application                      : Lavf54.63.100
Writing library                          : Lavf54.63.100
COPYRIGHT                                : robbyrs
DATE                                     : 2017

Video
ID                                       : 1
Format                                   : AVC
Format/Info                              : Advanced Video Codec
Format profile                           : [email protected]
Format settings, CABAC                   : Yes
Format settings, ReFrames                : 2 frames
Codec ID                                 : V_MPEG4/ISO/AVC
Duration                                 : 1h 55mn
Bit rate                                 : 1 290 Kbps
Width                                    : 720 pixels
Height                                   : 304 pixels
Display aspect ratio                     : 2.40:1
Original display aspect ratio            : 2.40:1
Frame rate mode                          : Variable
Frame rate                               : 23.976 fps
Color space                              : YUV
Chroma subsampling                       : 4:2:0
Bit depth                                : 8 bits
Scan type                                : Progressive
Bits/(Pixel*Frame)                       : 0.246
Stream size                              : 1 020 MiB (57%)
Writing library                          : x264 core 130 r2273
Encoding settings                        : cabac=1 / ref=2 / deblock=1:0:0 / analyse=0x1:0x131 / me=hex / subme=7 / psy=1 / psy_rd=1.00:0.00 / mixed_ref=0 / me_range=16 / chroma_me=1 / trellis=1 / 8x8dct=0 / cqm=0 / deadzone=21,11 / fast_pskip=1 / chroma_qp_offset=-2 / threads=12 / lookahead_threads=2 / sliced_threads=0 / nr=0 / decimate=1 / interlaced=0 / bluray_compat=0 / constrained_intra=0 / bframes=3 / b_pyramid=0 / b_adapt=1 / b_bias=0 / direct=3 / weightb=1 / open_gop=0 / weightp=2 / keyint=230 / keyint_min=23 / scenecut=40 / intra_refresh=0 / rc_lookahead=40 / rc=abr / mbtree=1 / bitrate=1290 / ratetol=1.0 / qcomp=0.60 / qpmin=10 / qpmax=69 / qpstep=4 / vbv_maxrate=24000 / vbv_bufsize=24000 / nal_hrd=none / ip_ratio=1.40 / aq=1:1.00
Language                                 : Italian
Default                                  : Yes
Forced                                   : Yes
DURATION                                 : 01:55:08.402000000
NUMBER_OF_FRAMES                         : 165636
NUMBER_OF_BYTES                          : 3976640523
_STATISTICS_WRITING_APP                  : mkvmerge v10.0.0 ('To Drown In You') 64bit
_STATISTICS_WRITING_DATE_UTC             : 2017-05-30 16:35:14
_STATISTICS_TAGS                         : BPS DURATION NUMBER_OF_FRAMES NUMBER_OF_BYTES

Audio #1
ID                                       : 2
Format                                   : AC-3
Format/Info                              : Audio Coding 3
Mode extension                           : CM (complete main)
Codec ID                                 : A_AC3
Duration                                 : 1h 55mn
Bit rate mode                            : Constant
Bit rate                                 : 448 Kbps
Channel(s)                               : 6 channels
Channel positions                        : Front: L C R, Side: L R, LFE
Sampling rate                            : 48.0 KHz
Bit depth                                : 16 bits
Compression mode                         : Lossy
Delay relative to video                  : 1mn 5s
Stream size                              : 369 MiB (21%)
Language                                 : Italian
Default                                  : Yes
Forced                                   : Yes
DURATION                                 : 01:55:08.470000000
NUMBER_OF_FRAMES                         : 647669
NUMBER_OF_BYTES                          : 1303110028
_STATISTICS_WRITING_APP                  : mkvmerge v10.0.0 ('To Drown In You') 64bit
_STATISTICS_WRITING_DATE_UTC             : 2017-05-30 16:35:14
_STATISTICS_TAGS                         : BPS DURATION NUMBER_OF_FRAMES NUMBER_OF_BYTES

Audio #2
ID                                       : 3
Format                                   : AC-3
Format/Info                              : Audio Coding 3
Mode extension                           : CM (complete main)
Codec ID                                 : A_AC3
Duration                                 : 1h 55mn
Bit rate mode                            : Constant
Bit rate                                 : 448 Kbps
Channel(s)                               : 6 channels
Channel positions                        : Front: L C R, Side: L R, LFE
Sampling rate                            : 48.0 KHz
Bit depth                                : 16 bits
Compression mode                         : Lossy
Delay relative to video                  : 1mn 5s
Stream size                              : 369 MiB (21%)
Language                                 : Japanese
Default                                  : No
Forced                                   : No
DURATION                                 : 01:55:08.512000000
NUMBER_OF_FRAMES                         : 647673
NUMBER_OF_BYTES                          : 1303118076
_STATISTICS_WRITING_APP                  : mkvmerge v10.0.0 ('To Drown In You') 64bit
_STATISTICS_WRITING_DATE_UTC             : 2017-05-30 16:35:14
_STATISTICS_TAGS                         : BPS DURATION NUMBER_OF_FRAMES NUMBER_OF_BYTES

Text #1
ID                                       : 4
Format                                   : ASS
Codec ID                                 : S_TEXT/ASS
Codec ID/Info                            : Advanced Sub Station Alpha
Compression mode                         : Lossless
Title                                    : Italiano forced (VUOTO)
Language                                 : Italian
Default                                  : Yes
Forced                                   : No
DURATION                                 : 00:00:01.000000000
NUMBER_OF_FRAMES                         : 1
NUMBER_OF_BYTES                          : 0
_STATISTICS_WRITING_APP                  : mkvmerge v10.0.0 ('To Drown In You') 64bit
_STATISTICS_WRITING_DATE_UTC             : 2017-05-30 16:35:14
_STATISTICS_TAGS                         : BPS DURATION NUMBER_OF_FRAMES NUMBER_OF_BYTES

Text #2
ID                                       : 5
Format                                   : ASS
Codec ID                                 : S_TEXT/ASS
Codec ID/Info                            : Advanced Sub Station Alpha
Compression mode                         : Lossless
Title                                    : Italiano
Language                                 : Italian
Default                                  : No
Forced                                   : No
DURATION                                 : 01:43:11.894000000
NUMBER_OF_FRAMES                         : 901
NUMBER_OF_BYTES                          : 19916
_STATISTICS_WRITING_APP                  : mkvmerge v10.0.0 ('To Drown In You') 64bit
_STATISTICS_WRITING_DATE_UTC             : 2017-05-30 16:35:14
_STATISTICS_TAGS                         : BPS DURATION NUMBER_OF_FRAMES NUMBER_OF_BYTES

Menu
00:00:00.000                             : :Capitolo 01
00:08:42.355                             : :Capitolo 02
00:18:58.137                             : :Capitolo 03
00:28:23.118                             : :Capitolo 04
00:39:57.812                             : :Capitolo 05
00:48:27.530                             : :Capitolo 06
00:57:17.059                             : :Capitolo 07
01:09:16.569                             : :Capitolo 08
01:20:29.241                             : :Capitolo 09
01:28:17.292                             : :Capitolo 10
01:37:05.653                             : :Capitolo 11
01:44:29.263                             : :Capitolo 12



[/spoiler]

[/center]

Info: Per scaricare devi usare un client come uTorrent o Transmission
AnnounceURL
udp://tracker.coppersurfer.tk:6969/announce
Hash 0f337d0d90a1290ab23f4d695c23a92e1326e70b
Peers seeds: 47 , leech: 10
Size 1.75 GB
Completato 2370x
Aggiunto 24.09.17 - 09:09:27
Uploader   robbyrs
Votazione (Voti: 1)


Condividi questo bittorrent:


html/blog:


bbcode/forum:




Aggiungi Commento


counter