* Dettagli Torrent   globale  | Commenti (0) 


- Lucifer.2x01.le.Cose.Si.Mettono.Bene.Lucifer.ITA.ENG.1080p.BDMux.x264-Morpheus.mkv -


Download via torrent:
Categoria bittorrent SerieTv
Descrizione
[center]

GIUSEPPEiCV & LITTLELINX
HANNO IL PIACERE DI PRESENTARE


LUCIFER
STAGIONE 2
BDMUX 1080p
Dual Language ITA - ENG
Sub ITA - ENG
Trovi tutte le nostre release su
IL CORSARO VERDE
www.icv-crew.org




.: Dati Serie :.


Nazione: Stati Uniti d'America, Regno Unito
Anno: 2016 -  in produzione
Genere: fantastico, drammatico, horror, azione
Stagione 2
Episodi: 18
Durata: 45 min circa
Lingua: ITA - ENG
Soggetto:Mike Carey [/b](fumetto)
Neil Gaiman (personaggio)
Cast:
• Tom Ellis: Lucifer Morningstar
• Lauren German: Chloe Decker
• Kevin Alejandro: Dan
• D. B. Woodside: Amenadiel
• Lesley-Ann Brandt: Maze
• Scarlett Estevez: Beatrice "Trixie" Espinoza
• Kevin Rankin: Malcolm Graham
• Rachael Harris: Dr. Linda Martin
• Tricia Helfer: Madre
• Aimee Garcia: Ella Lopez[/center]

Stanco e annoiato di essere il Signore degli Inferi e la pedina di suo padre, Lucifer decide di abbandonare il suo regno e trasferirsi nella soleggiata Los Angeles per prendersi una pausa. In questo viaggio e' accompagnato dalla sua fidata consulente e alleata Maze


[center].: Screenshot :.




.: Caratteristiche Tecniche :.[/center]
[spoiler]
Lucifer.2x01.le.Cose.Si.Mettono.Bene.Lucifer.ITA.ENG.1080p.BDMux.x264-Morpheus.mkv
Format                                   : Matroska
Format version                           : Version 4 / Version 2
File size                                : 4.08 GiB
Duration                                 : 42mn 14s
Overall bit rate                         : 13.8 Mbps
Encoded date                             : UTC 2017-09-23 11:26:16
Writing application                      : mkvmerge v7.6.0 ('Garden of Dreams') 64bit built on Feb  8 2015 15:12:28
Writing library                          : libebml v1.3.1 + libmatroska v1.4.2
DURATION                                 : 00:42:14.144000000
NUMBER_OF_FRAMES                         : 79192
NUMBER_OF_BYTES                          : 121638912
_STATISTICS_WRITING_APP                  : mkvmerge v7.6.0 ('Garden of Dreams') 64bit built on Feb  8 2015 15:12:28
_STATISTICS_WRITING_DATE_UTC             : 2017-09-23 11:26:16
_STATISTICS_TAGS                         : BPS DURATION NUMBER_OF_FRAMES NUMBER_OF_BYTES

Video
ID                                       : 1
Format                                   : AVC
Format/Info                              : Advanced Video Codec
Format profile                           : [email protected]
Format settings, CABAC                   : Yes
Format settings, ReFrames                : 4 frames
Codec ID                                 : V_MPEG4/ISO/AVC
Duration                                 : 42mn 14s
Bit rate                                 : 12.7 Mbps
Width                                    : 1 920 pixels
Height                                   : 1 080 pixels
Display aspect ratio                     : 16:9
Frame rate                               : 25.000 fps
Original frame rate                      : 23.976 fps
Color space                              : YUV
Chroma subsampling                       : 4:2:0
Bit depth                                : 8 bits
Scan type                                : Progressive
Bits/(Pixel*Frame)                       : 0.245
Stream size                              : 3.83 GiB (94%)
Writing library                          : x264 core 152 r2851+11 (master: ba24899 / tmod: 1e92fb1) [X86_64]
Encoding settings                        : cabac=1 / ref=4 / deblock=1:-3:-3 / analyse=0x3:0x113 / me=umh / subme=11 / psy=1 / fade_compensate=0.00 / psy_rd=1.05:0.10 / mixed_ref=1 / me_range=48 / chroma_me=1 / trellis=2 / 8x8dct=1 / cqm=0 / deadzone=6,6 / fast_pskip=0 / chroma_qp_offset=-3 / threads=30 / lookahead_threads=7 / sliced_threads=0 / nr=0 / decimate=0 / interlaced=0 / bluray_compat=0 / constrained_intra=0 / fgo=0 / bframes=11 / b_pyramid=2 / b_adapt=2 / b_bias=0 / direct=3 / weightb=1 / open_gop=0 / weightp=2 / keyint=250 / keyint_min=23 / scenecut=40 / intra_refresh=0 / rc=2pass / mbtree=0 / bitrate=12710 / ratetol=1.0 / qcomp=0.70 / qpmin=0:0:0 / qpmax=69:69:69 / qpstep=4 / cplxblur=20.0 / qblur=0.5 / ip_ratio=1.10 / pb_ratio=1.10 / aq=3:0.75 / aq-sensitivity=10.00 / aq-factor=1.00:1.00:1.00 / aq2=0 / aq3=0
Language                                 : English
Default                                  : Yes
Forced                                   : No
DURATION                                 : 00:42:14.080000000
NUMBER_OF_FRAMES                         : 63352
NUMBER_OF_BYTES                          : 4195971684
_STATISTICS_WRITING_APP                  : mkvmerge v7.6.0 ('Garden of Dreams') 64bit built on Feb  8 2015 15:12:28
_STATISTICS_WRITING_DATE_UTC             : 2017-09-23 11:26:16
_STATISTICS_TAGS                         : BPS DURATION NUMBER_OF_FRAMES NUMBER_OF_BYTES

Audio #1
ID                                       : 2
Format                                   : AC-3
Format/Info                              : Audio Coding 3
Mode extension                           : CM (complete main)
Codec ID                                 : A_AC3
Duration                                 : 42mn 14s
Bit rate mode                            : Constant
Bit rate                                 : 192 Kbps
Channel(s)                               : 2 channels
Channel positions                        : Front: L R
Sampling rate                            : 48.0 KHz
Bit depth                                : 16 bits
Compression mode                         : Lossy
Stream size                              : 58.0 MiB (1%)
Title                                    : ITA
Language                                 : Italian
Default                                  : Yes
Forced                                   : Yes

Audio #2
ID                                       : 4
Format                                   : AC-3
Format/Info                              : Audio Coding 3
Mode extension                           : CM (complete main)
Codec ID                                 : A_AC3
Duration                                 : 42mn 14s
Bit rate mode                            : Constant
Bit rate                                 : 384 Kbps
Channel(s)                               : 6 channels
Channel positions                        : Front: L C R, Side: L R, LFE
Sampling rate                            : 48.0 KHz
Bit depth                                : 16 bits
Compression mode                         : Lossy
Stream size                              : 116 MiB (3%)
Title                                    : ENG
Language                                 : English
Default                                  : No
Forced                                   : No

Text #1
ID                                       : 3
Format                                   : UTF-8
Codec ID                                 : S_TEXT/UTF8
Codec ID/Info                            : UTF-8 Plain Text
Language                                 : Italian
Default                                  : No
Forced                                   : No

Text #2
ID                                       : 5
Format                                   : UTF-8
Codec ID                                 : S_TEXT/UTF8
Codec ID/Info                            : UTF-8 Plain Text
Title                                    : English
Language                                 : English
Default                                  : No
Forced                                   : No

Text #3
ID                                       : 6
Format                                   : UTF-8
Codec ID                                 : S_TEXT/UTF8
Codec ID/Info                            : UTF-8 Plain Text
Title                                    : English (SDH)
Language                                 : English
Default                                  : No
Forced                                   : No


[/spoiler]

[center].: Ringraziamenti :.




RESTATE IN SEED ALTRIMENTI

[/center]
Info: Per scaricare devi usare un client come uTorrent o Transmission
AnnounceURL
http://tracker.tntvillage.scambioetico.org:2710/announce
Hash 48ff68714c2fdce6b40228f17dc0e2a8ee5ba13d
Peers seeds: 64 , leech: 10
Size 4.08 GB
Completato 462x
Aggiunto 23.09.17 - 07:09:20
Uploader   ppb1
Votazione (Voti: 0)


Condividi questo bittorrent:


html/blog:


bbcode/forum:




Aggiungi Commento


counter