* Dettagli Torrent   globale  | Commenti (0) 


- Assalto dallo spazio - Invisible Invaders (1959).H264.Italian.English.Ac3.sub.ita.iCV-MIRCrew -


Download via torrent:
Categoria bittorrent BDRip
Descrizione
Assalto dallo spazio - Invisible Invaders (1959).H264.Italian.English.Ac3.sub.ita.iCV-MIRCrew

[center]by www.icv-crew.org


NO FOUND ONLY ORIGINAL RELEASE



My release is always in double track audio italian and Original audio
for select it use VLC or dvd player home
not use wmp

Assalto dallo spazio - Invisible Invaders (1959)

 





Titolo originale Invisible Invaders
Lingua originale inglese
Paese di produzione Stati Uniti d'America
Anno 1959
Dati tecnici B/N
Genere fantascienza, orrore
Regia Edward L. Cahn




   John Agar: Bruce Jay
   Jean Byron: Phyllis Penner
   Philip Tonge: Adam Penner
   Robert Hutton: John Lamont
   John Carradine: Karol Noymann
   Paul Langton: generale Stone




Lo scienziato Adam Penner (Denner) scopre che parte della Luna è abitata da alieni che intendono conquistare la Terra, cerca di avvertire le autorità ma nessuno gli presta ascolto. In seguito gli esseri decidono un primo attacco, essi prendono corpo entrando nei cadaveri degli esseri umani e assalgono il laboratorio. Soltanto una scoperta dello scienziato permetterà agli umani la rivincita sugli zombie e alieni.................



Aliens, contacting scientist Adam Penner, inform him that they have been on the moon for twenty thousand years, undetected due to their invisibility, and have now decided to annihilate ...








[spoiler]
General
Unique ID                                : 222201508128524535933866815622948556326 (0xA72A742D7FF77BD2B773ADE7476F8E26)
Complete name                            : Assalto dallo spazio - Invisible Invaders (1959).H264.ita.eng.sub.ita.iCV-MIRCrew\Assalto dallo spazio - Invisible Invaders (1959).H264.ita.eng.sub.ita.iCV-MIRCrew.mkv
Format                                   : Matroska
Format version                           : Version 2
File size                                : 1.01 GiB
Duration                                 : 1h 4mn
Overall bit rate                         : 2 258 Kbps
Movie name                               : www.icv-crew.org by robbyrs
Encoded date                             : UTC 2017-01-09T16:09:04Z
Writing application                      : mkvmerge v5.4.0 ('Piper') built on Mar 10 2012 13:34:39
Writing library                          : Lavf55.12.0

Video
ID                                       : 1
Format                                   : AVC
Format/Info                              : Advanced Video Codec
Format profile                           : [email protected]
Format settings, CABAC                   : Yes
Format settings, ReFrames                : 4 frames
Muxing mode                              : Header stripping
Codec ID                                 : V_MPEG4/ISO/AVC
Duration                                 : 1h 4mn
Bit rate                                 : 1 800 Kbps
Width                                    : 716 pixels
Height                                   : 576 pixels
Display aspect ratio                     : 4:3
Original display aspect ratio            : 4:3
Frame rate mode                          : Variable / Variable
Frame rate                               : 25.000 fps
Color space                              : YUV
Chroma subsampling                       : 4:2:0
Bit depth                                : 8 bits
Scan type                                : Progressive
Bits/(Pixel*Frame)                       : 0.175
Stream size                              : 809 MiB (78%)
Title                                    : Assalto dallo spazio - Invisible Invaders (1959).H264.ita.eng.sub.ita.iCV-MIRCrew
Writing library                          : x264 core 142 r2479 dd79a61
Encoding settings                        : cabac=1 / ref=1 / deblock=1:0:0 / analyse=0x1:0x111 / me=hex / subme=2 / psy=1 / psy_rd=1.00:0.00 / mixed_ref=0 / me_range=16 / chroma_me=1 / trellis=0 / 8x8dct=0 / cqm=0 / deadzone=21,11 / fast_pskip=1 / chroma_qp_offset=0 / threads=3 / lookahead_threads=1 / sliced_threads=0 / nr=0 / decimate=1 / interlaced=0 / bluray_compat=0 / constrained_intra=0 / bframes=3 / b_pyramid=2 / b_adapt=1 / b_bias=0 / direct=1 / weightb=1 / open_gop=0 / weightp=1 / keyint=250 / keyint_min=25 / scenecut=40 / intra_refresh=0 / rc_lookahead=10 / rc=abr / mbtree=1 / bitrate=1800 / ratetol=1.0 / qcomp=0.60 / qpmin=0 / qpmax=69 / qpstep=4 / vbv_maxrate=50000 / vbv_bufsize=62500 / nal_hrd=none / filler=0 / ip_ratio=1.40 / aq=1:1.00
Language                                 : Italian
Default                                  : Yes
Forced                                   : No
Color primaries                          : BT.470-6 System B, BT.470-6 System G, BT.601-6 625, BT.1358 625, BT.1700 625 PAL, BT.1700 625 SECAM
Transfer characteristics                 : BT.709-5, BT.1361
Matrix coefficients                      : BT.601-6 525, BT.1358 525, BT.1700 NTSC, SMPTE 170M

Audio #1
ID                                       : 2
Format                                   : AC-3
Format/Info                              : Audio Coding 3
Format profile                           : Dolby Digital
Mode extension                           : CM (complete main)
Muxing mode                              : Header stripping
Codec ID                                 : A_AC3
Duration                                 : 1h 4mn
Bit rate mode                            : Constant
Bit rate                                 : 224 Kbps
Channel(s)                               : 2 channels
Channel positions                        : Front: L R
Sampling rate                            : 48.0 KHz
Bit depth                                : 16 bits
Compression mode                         : Lossy
Stream size                              : 103 MiB (10%)
Title                                    : Stereo
Language                                 : Italian
Default                                  : Yes
Forced                                   : No

Audio #2
ID                                       : 3
Format                                   : AC-3
Format/Info                              : Audio Coding 3
Format profile                           : Dolby Digital
Mode extension                           : CM (complete main)
Muxing mode                              : Header stripping
Codec ID                                 : A_AC3
Duration                                 : 1h 4mn
Bit rate mode                            : Constant
Bit rate                                 : 224 Kbps
Channel(s)                               : 2 channels
Channel positions                        : Front: L R
Sampling rate                            : 48.0 KHz
Bit depth                                : 16 bits
Compression mode                         : Lossy
Stream size                              : 103 MiB (10%)
Title                                    : Stereo
Language                                 : English
Default                                  : No
Forced                                   : No

Text
ID                                       : 4
Format                                   : VobSub
Muxing mode                              : zlib
Codec ID                                 : S_VOBSUB
Codec ID/Info                            : The same subtitle format used on DVDs
Language                                 : Italian
Default                                  : No
Forced                                   : No

Menu
00:00:00.000                             : :Chapter 1
00:05:08.040                             : :Chapter 2
00:12:43.440                             : :Chapter 3
00:15:33.240                             : :Chapter 4
00:19:05.040                             : :Chapter 5
00:24:37.440                             : :Chapter 6
00:31:59.640                             : :Chapter 7
00:42:37.440                             : :Chapter 8
00:46:28.440                             : :Chapter 9
00:50:57.240                             : :Chapter 10
00:53:24.840                             : :Chapter 11
00:58:21.840                             : :Chapter 12



[/spoiler]

[/center]

Info: Per scaricare devi usare un client come uTorrent o Transmission
AnnounceURL
udp://tracker.coppersurfer.tk:6969/announce
Hash 4146bf2dfd0b1e6e52f89d7aa622170a87db6302
Peers seeds: 20 , leech: 4
Size 1.01 GB
Completato 484x
Aggiunto 19.09.17 - 08:09:35
Uploader   robbyrs
Votazione (Voti: 2)


Condividi questo bittorrent:


html/blog:


bbcode/forum:




Aggiungi Commento


counter