* Dettagli Torrent   globale  | Commenti (0) 


- Quel gran pezzo dellUbalda tutta nuda e tutta calda (1972).H264.Italian.Ac3.sub.english.iCV-MIRCrew -


Download via torrent:
Categoria bittorrent BDRip
Descrizione
Ubalda, All Naked and Warm - Quel gran pezzo dell'Ubalda tutta nuda e tutta calda (1972).H264.Italian.Ac3.sub.english.iCV-MIRCrew


[center]by www.icv-crew.org


NO FOUND ONLY ORIGINAL RELEASE



My release is always in double track audio italian and Original audio
for select it use VLC or dvd player home
not use wmp

Quel gran pezzo dell'Ubalda tutta nuda e tutta calda - Ubalda, All Naked and Warm (1972)

ENGLISH SUBTITLE INSIDE

   





Paese di produzione Italia
Anno 1972
Durata 91 min
Genere commedia, erotico
Regia Mariano Laurenti
Soggetto Tito Carpi,
Luciano Martino
Sceneggiatura Tito Carpi,
Carlo Veo
Produttore Luciano Martino
Casa di produzione Lea Film
Distribuzione (Italia) Interfilm
Fotografia Clemente Santoni
Montaggio Giuliana Attenni
Musiche Bruno Nicolai
Scenografia Antonio Visone
Costumi Oscar Capponi
Trucco Angelo Natalucci




   Edwige Fenech: Ubalda
   Pippo Franco: Olimpio de Pannocchieschi
   Karin Schubert: Fiamma
   Umberto D'Orsi: mastro Oderisi
   Pino Ferrara: frate manesco
   Gino Pagnani: mastro Deodato, fabbro ferraio
   Alberto Sorrentino: notaio Adone Bellezza
   Renato Malavasi: medico
   Dante Cleri: pittore Cantarano Da Nola
   Ermelinda De Felice: nutrice di Fiamma
   Gabriella Giorgelli: ragazza nel fienile




Di ritorno da una guerra, Olimpio De' Pannocchieschi torna al suo paese dove ad attenderlo c'è la moglie Fiamma che però ha fatto un voto: ella non si concederà al marito prima che siano trascorsi 15 giorni dal suo ritorno. Nel frattempo Olimpio deve rappacificarsi col suo bellicoso vicino, il mugnaio Mastro Oderisi che si è risposato con la bella Ubalda per la quale Olimpio perde la testa imbarcandosi in tutta una serie di imprese per riuscire a farla sua...........



During the Middle Ages, a clumsy knight returns home where his wife awaits him. Sensuous and beautiful, she has attracted several male admirers during his absence, but her chastity belt has...  










[spoiler]
General
Unique ID                                : 8976975505048548892246178057882083582 (0x6C0E7105E73956A4E10C1AD127EA0FE)
Complete name                            : Quel gran pezzo dell'Ubalda tutta nuda e tutta calda (1972).H264.sub.eng.iCV-MIRCrew.mkv
Format                                   : Matroska
Format version                           : Version 2
File size                                : 918 MiB
Duration                                 : 1h 26mn
Overall bit rate                         : 1 487 Kbps
Encoded date                             : UTC 2017-09-19T10:44:53Z
Writing application                      : HandBrake 0.10.5 2016021100
Writing library                          : Lavf55.12.0

Video
ID                                       : 1
Format                                   : AVC
Format/Info                              : Advanced Video Codec
Format profile                           : M[email protected]
Format settings, CABAC                   : Yes
Format settings, ReFrames                : 4 frames
Codec ID                                 : V_MPEG4/ISO/AVC
Duration                                 : 1h 26mn
Bit rate                                 : 1 300 Kbps
Width                                    : 720 pixels
Height                                   : 320 pixels
Display aspect ratio                     : 2.25:1
Frame rate mode                          : Variable
Frame rate                               : 25.000 fps
Color space                              : YUV
Chroma subsampling                       : 4:2:0
Bit depth                                : 8 bits
Scan type                                : Progressive
Bits/(Pixel*Frame)                       : 0.226
Stream size                              : 781 MiB (85%)
Writing library                          : x264 core 142 r2479 dd79a61
Encoding settings                        : cabac=1 / ref=1 / deblock=1:-1:-1 / analyse=0x1:0x111 / me=hex / subme=2 / psy=1 / psy_rd=1.00:0.15 / mixed_ref=0 / me_range=16 / chroma_me=1 / trellis=0 / 8x8dct=0 / cqm=0 / deadzone=21,11 / fast_pskip=1 / chroma_qp_offset=0 / threads=3 / lookahead_threads=1 / sliced_threads=0 / nr=0 / decimate=1 / interlaced=0 / bluray_compat=0 / constrained_intra=0 / bframes=3 / b_pyramid=2 / b_adapt=1 / b_bias=0 / direct=1 / weightb=1 / open_gop=0 / weightp=1 / keyint=250 / keyint_min=25 / scenecut=40 / intra_refresh=0 / rc_lookahead=10 / rc=abr / mbtree=1 / bitrate=1300 / ratetol=1.0 / qcomp=0.60 / qpmin=0 / qpmax=69 / qpstep=4 / vbv_maxrate=20000 / vbv_bufsize=25000 / nal_hrd=none / filler=0 / ip_ratio=1.40 / aq=1:1.00
Default                                  : Yes
Forced                                   : No
Color primaries                          : BT.470-6 System B, BT.470-6 System G, BT.601-6 625, BT.1358 625, BT.1700 625 PAL, BT.1700 625 SECAM
Transfer characteristics                 : BT.709-5, BT.1361
Matrix coefficients                      : BT.601-6 525, BT.1358 525, BT.1700 NTSC, SMPTE 170M

Audio
ID                                       : 2
Format                                   : AC-3
Format/Info                              : Audio Coding 3
Mode extension                           : CM (complete main)
Codec ID                                 : A_AC3
Duration                                 : 1h 26mn
Bit rate mode                            : Constant
Bit rate                                 : 192 Kbps
Channel(s)                               : 2 channels
Channel positions                        : Front: L R
Sampling rate                            : 48.0 KHz
Bit depth                                : 16 bits
Compression mode                         : Lossy
Delay relative to video                  : 1mn 5s
Stream size                              : 118 MiB (13%)
Title                                    : Stereo
Language                                 : Italian
Default                                  : Yes
Forced                                   : No

Menu
00:00:00.000                             : :Chapter 1
00:07:17.400                             : :Chapter 2
00:15:41.280                             : :Chapter 3
00:22:57.040                             : :Chapter 4
00:27:43.560                             : :Chapter 5
00:36:42.800                             : :Chapter 6
00:46:14.280                             : :Chapter 7
00:51:00.800                             : :Chapter 8
00:58:39.440                             : :Chapter 9
01:08:04.160                             : :Chapter 10
01:14:28.960                             : :Chapter 11
01:20:19.960                             : :Chapter 12



[/spoiler]

[/center]

Info: Per scaricare devi usare un client come uTorrent o Transmission
AnnounceURL
udp://tracker.coppersurfer.tk:6969/announce
Hash 25fe97edd222618933f4926f68ddc23d35e28088
Peers seeds: 61 , leech: 6
Size 918.11 MB
Completato 1095x
Aggiunto 19.09.17 - 07:09:43
Uploader   robbyrs
Votazione (Voti: 1)


Condividi questo bittorrent:


html/blog:


bbcode/forum:




Aggiungi Commento


counter