* Dettagli Torrent   globale  | Commenti (0) 


- Lupin III - Viaggio nel pericolo (1993).H264.Ac3-DTS.3xita.Jpn.Sub.ita.iCV-MIRCrew -


Download via torrent:
Categoria bittorrent Anime
Descrizione
Lupin III - Viaggio nel pericolo (1993).H264.Ac3-DTS.3xita.Jpn.Sub.ita.iCV-MIRCrew


[center]

by www.icv-crew.org


NO FOUND ONLY ORIGINAL RELEASE



My release is always in double track audio italian and Original audio
for select it use VLC or dvd player home
not use wmp

Lupin III - Viaggio nel pericolo (1993)

Versione tre audio







Regia Masaaki ?sumi
Musiche Y?ji ?no
Studio TMS Entertainment
Rete Nippon Television
1ª TV 23 luglio 1993
Aspect ratio 4:3
Durata 92 min
Rete it. Italia 1
1ª TV it. 4 maggio 1999



*****************

Doppiatori:

Lupin III Yasuo Yamada Roberto Del Giudice
Daisuke Jigen Kiyoshi Kobayashi Sandro Pellegrini
Fujiko Mine Eiko Masuyama Alessandra Korompay
Goemon Ishikawa Makio Inoue Antonio Palumbo
Ispettore Koichi Zenigata Gor? Naya Rodolfo Bianchi
John Cloths Nachi Nozawa Mino Caprio
Karen Kowalsky Atsuko Tanaka Vittoria Febbi
Keith Arnett Unsh? Ishizuka Fabrizio Pucci


All'ispettore Zenigata è stato tolto il caso Lupin III a causa della sua incapacità nell'arrestarlo, ed è stato sostituito con un agente di nome Keith, al quale è stato dato l'ordine di catturare Lupin e i membri della sua banda, vivi o morti. Lupin non è contento della cosa, così cerca di far tornare Zenigata alla sua mansione sfruttando il nuovo caso dato all'ispettore: investigare sulla Shot Shell, un'organizzazione di trafficanti d'armi



Lupin takes on a gang of arms dealers, but must deal with a new complication: Inspector Zenigata is taken off the Lupin case and replaced with a new officer who wants Lupin dead.









[spoiler]
General
Unique ID                                : 234770850342625595677514587565343418257 (0xB09F389855283A37AB8508A8A874A791)
Complete name                            : Lupin III - Viaggio nel pericolo (1993).H264.3xita.jpn.sub.ita.iCV-MIRCrew.mkv
Format                                   : Matroska
Format version                           : Version 2
File size                                : 1.84 GiB
Duration                                 : 1h 30mn
Overall bit rate                         : 2 906 Kbps
Movie name                               : Lupin III - Viaggio nel pericolo (1993).Title1
Encoded date                             : UTC 2017-09-04 07:33:55
Writing application                      : DVDFab 9.1.5.7
Writing library                          : libebml v0.7.8 + libmatroska v0.8.1

Video
ID                                       : 1
Format                                   : AVC
Format/Info                              : Advanced Video Codec
Format profile                           : [email protected]
Format settings, CABAC                   : Yes
Format settings, ReFrames                : 2 frames
Codec ID                                 : V_MPEG4/ISO/AVC
Duration                                 : 1h 30mn
Bit rate                                 : 1 262 Kbps
Width                                    : 720 pixels
Height                                   : 544 pixels
Display aspect ratio                     : 4:3
Frame rate                               : 25.000 fps
Color space                              : YUV
Chroma subsampling                       : 4:2:0
Bit depth                                : 8 bits
Scan type                                : Progressive
Bits/(Pixel*Frame)                       : 0.129
Stream size                              : 817 MiB (43%)
Writing library                          : x264 core
Default                                  : Yes
Forced                                   : No
Color primaries                          : BT.601-6 525, BT.1358 525, BT.1700 NTSC, SMPTE 170M
Transfer characteristics                 : BT.709-5, BT.1361
Matrix coefficients                      : BT.601-6 525, BT.1358 525, BT.1700 NTSC, SMPTE 170M

Audio #1
ID                                       : 2
Format                                   : DTS
Format/Info                              : Digital Theater Systems
Codec ID                                 : A_DTS
Duration                                 : 1h 30mn
Bit rate mode                            : Constant
Bit rate                                 : 755 Kbps
Channel(s)                               : 6 channels
Channel positions                        : Front: L C R, Side: L R, LFE
Sampling rate                            : 48.0 KHz
Bit depth                                : 24 bits
Compression mode                         : Lossy
Stream size                              : 489 MiB (26%)
Language                                 : Italian
Default                                  : Yes
Forced                                   : No

Audio #2
ID                                       : 3
Format                                   : AC-3
Format/Info                              : Audio Coding 3
Mode extension                           : CM (complete main)
Codec ID                                 : A_AC3
Duration                                 : 1h 30mn
Bit rate mode                            : Constant
Bit rate                                 : 192 Kbps
Channel(s)                               : 2 channels
Channel positions                        : Front: L R
Sampling rate                            : 48.0 KHz
Bit depth                                : 16 bits
Compression mode                         : Lossy
Stream size                              : 124 MiB (7%)
Language                                 : Italian
Default                                  : No
Forced                                   : No

Audio #3
ID                                       : 4
Format                                   : AC-3
Format/Info                              : Audio Coding 3
Mode extension                           : CM (complete main)
Codec ID                                 : A_AC3
Duration                                 : 1h 30mn
Bit rate mode                            : Constant
Bit rate                                 : 448 Kbps
Channel(s)                               : 6 channels
Channel positions                        : Front: L C R, Side: L R, LFE
Sampling rate                            : 48.0 KHz
Bit depth                                : 16 bits
Compression mode                         : Lossy
Stream size                              : 290 MiB (15%)
Language                                 : Italian
Default                                  : No
Forced                                   : No

Audio #4
ID                                       : 5
Format                                   : AC-3
Format/Info                              : Audio Coding 3
Mode extension                           : CM (complete main)
Codec ID                                 : A_AC3
Duration                                 : 1h 30mn
Bit rate mode                            : Constant
Bit rate                                 : 192 Kbps
Channel(s)                               : 2 channels
Channel positions                        : Front: L R
Sampling rate                            : 48.0 KHz
Bit depth                                : 16 bits
Compression mode                         : Lossy
Stream size                              : 124 MiB (7%)
Language                                 : Japanese
Default                                  : No
Forced                                   : No

Text
ID                                       : 6
Format                                   : VobSub
Codec ID                                 : S_VOBSUB
Codec ID/Info                            : The same subtitle format used on DVDs
Language                                 : Italian
Default                                  : Yes
Forced                                   : No

Menu
00:00:00.000                             : en01)00:00:00:000
00:04:40.280                             : en02)00:04:40:280
00:09:14.320                             : en03)00:09:14:320
00:11:08.720                             : en04)00:11:08:720
00:18:38.000                             : en05)00:18:38:000
00:30:25.720                             : en06)00:30:25:720
00:33:55.800                             : en07)00:33:55:800
00:41:36.520                             : en000:41:36:520
00:49:22.960                             : en09)00:49:22:960
00:55:28.520                             : en10)00:55:28:520
01:12:36.560                             : en11)01:12:36:560
01:25:36.040                             : en12)01:25:36:040



[/spoiler]

[/center]

Info: Per scaricare devi usare un client come uTorrent o Transmission
AnnounceURL
udp://tracker.coppersurfer.tk:6969/announce
Hash 72bc075e311d367450e07a8eb76ab07aeea25040
Peers seeds: 14 , leech: 5
Size 1.84 GB
Completato 125x
Aggiunto 18.09.17 - 07:09:51
Uploader   robbyrs
Votazione (Voti: 1)


Condividi questo bittorrent:


html/blog:


bbcode/forum:




Aggiungi Commento


counter