* Dettagli Torrent   globale  | Commenti (0) 


- King Kong Il Gigante Della Foresta (1967).H264.Italian.Jpn.Ac3.5.1.iCV-MIRCrew -


Download via torrent:
Categoria bittorrent BDRip
Descrizione
King Kong Il Gigante Della Foresta (1967).H264.Italian.Jpn.Ac3.5.1.iCV-MIRCrew

[center]by www.icv-crew.org


NO FOUND ONLY ORIGINAL RELEASE



My release is always in double track audio italian and Original audio
for select it use VLC or dvd player home
not use wmp

King Kong Il Gigante Della Foresta (1967)







Titolo originale , Kingu Kongu no gyakushu
Paese di produzione Giappone, Stati Uniti d'America
Anno 1967
Durata 104 min
Genere fantascienza, avventura
Regia Ishiro Honda
Soggetto Arthur Rankin Jr. e Jules Bass (serie animata)
Sceneggiatura Shin'ichi Sekizawa
Produttore Tomoyuki Tanaka
Effetti speciali Eiji Tsuburaya
Musiche Akira Ifukube




   Rhodes Reason: tenente comandante Carl Nelson
   Akira Takarada: tenente comandante Jiro Nomura
   Linda Miller: tenente Susan Watson
   Eisei Amamoto: dottor Who
   Mie Hama: Madame Piranha (Madame X)
   Haruo Nakajima: King Kong / spettatore curioso
   Yu Sekida: Mechani-Kong / Gorosaurus




Tre scienziati dell'ONU stanno compiendo delle ricerche oceanografiche a bordo dell'Explorer, un sommergibile atomico, nei pressi dell'isola di Mondo nell'arcipelago giapponese. A causa di un'avaria i tre sono costretti ad approdare in una baia dell'isola: qui con grande meraviglia e sgomento scoprono che si tratta della leggendaria Isola del Teschio, abitata da creature preistoriche. ..................



King Kong is brought in by an evil ruler to dig for precious gems in a mine when the robot MechaKong is unable to do the task. This leads to the machine and the real Kong engaging in a tremendous battle that threatens to level Japan.








[spoiler]
General
Unique ID                                : 30175419312120041028289199168840099702 (0x16B3930980F3EAA2155BE12E8E9D6776)
Complete name                            : King Kong Il Gigante Della Foresta (1967).H264.ita.jpn.iCV-MIRCrew\King Kong Il Gigante Della Foresta (1967).H264.ita.jpn.iCV-MIRCrew.mkv
Format                                   : Matroska
Format version                           : Version 2
File size                                : 1.36 GiB
Duration                                 : 1h 44mn
Overall bit rate                         : 1 876 Kbps
Encoded date                             : UTC 2017-09-16T12:52:08Z
Writing application                      : HandBrake 0.10.5 2016021100
Writing library                          : Lavf55.12.0

Video
ID                                       : 1
Format                                   : AVC
Format/Info                              : Advanced Video Codec
Format profile                           : [email protected]
Format settings, CABAC                   : Yes
Format settings, ReFrames                : 4 frames
Codec ID                                 : V_MPEG4/ISO/AVC
Duration                                 : 1h 44mn
Bit rate                                 : 1 290 Kbps
Width                                    : 656 pixels
Height                                   : 272 pixels
Display aspect ratio                     : 2.40:1
Frame rate mode                          : Variable / Variable
Frame rate                               : 25.000 fps
Color space                              : YUV
Chroma subsampling                       : 4:2:0
Bit depth                                : 8 bits
Scan type                                : Progressive
Bits/(Pixel*Frame)                       : 0.289
Stream size                              : 939 MiB (67%)
Writing library                          : x264 core 142 r2479 dd79a61
Encoding settings                        : cabac=1 / ref=1 / deblock=1:0:0 / analyse=0x1:0x111 / me=hex / subme=2 / psy=1 / psy_rd=1.00:0.00 / mixed_ref=0 / me_range=16 / chroma_me=1 / trellis=0 / 8x8dct=0 / cqm=0 / deadzone=21,11 / fast_pskip=1 / chroma_qp_offset=0 / threads=12 / lookahead_threads=2 / sliced_threads=0 / nr=0 / decimate=1 / interlaced=0 / bluray_compat=0 / constrained_intra=0 / bframes=3 / b_pyramid=2 / b_adapt=1 / b_bias=0 / direct=1 / weightb=1 / open_gop=0 / weightp=1 / keyint=250 / keyint_min=25 / scenecut=40 / intra_refresh=0 / rc_lookahead=10 / rc=abr / mbtree=1 / bitrate=1290 / ratetol=1.0 / qcomp=0.60 / qpmin=0 / qpmax=69 / qpstep=4 / vbv_maxrate=20000 / vbv_bufsize=25000 / nal_hrd=none / filler=0 / ip_ratio=1.40 / aq=1:1.00
Default                                  : Yes
Forced                                   : No
Color primaries                          : BT.470-6 System B, BT.470-6 System G, BT.601-6 625, BT.1358 625, BT.1700 625 PAL, BT.1700 625 SECAM
Transfer characteristics                 : BT.709-5, BT.1361
Matrix coefficients                      : BT.601-6 525, BT.1358 525, BT.1700 NTSC, SMPTE 170M

Audio #1
ID                                       : 2
Format                                   : AC-3
Format/Info                              : Audio Coding 3
Mode extension                           : CM (complete main)
Codec ID                                 : A_AC3
Duration                                 : 1h 44mn
Bit rate mode                            : Constant
Bit rate                                 : 384 Kbps
Channel(s)                               : 6 channels
Channel positions                        : Front: L C R, Side: L R, LFE
Sampling rate                            : 48.0 KHz
Bit depth                                : 16 bits
Compression mode                         : Lossy
Delay relative to video                  : 1mn 5s
Stream size                              : 286 MiB (20%)
Title                                    : Surround
Default                                  : Yes
Forced                                   : No

Audio #2
ID                                       : 3
Format                                   : AC-3
Format/Info                              : Audio Coding 3
Mode extension                           : CM (complete main)
Codec ID                                 : A_AC3
Duration                                 : 1h 44mn
Bit rate mode                            : Constant
Bit rate                                 : 192 Kbps
Channel(s)                               : 2 channels
Channel positions                        : Front: L R
Sampling rate                            : 48.0 KHz
Bit depth                                : 16 bits
Compression mode                         : Lossy
Delay relative to video                  : 1mn 5s
Stream size                              : 143 MiB (10%)
Title                                    : Stereo
Default                                  : No
Forced                                   : No



[/spoiler]

[/center]

Info: Per scaricare devi usare un client come uTorrent o Transmission
AnnounceURL
udp://tracker.coppersurfer.tk:6969/announce
Hash 0379c81450a11705ca4b21978d8b5abbd0388f3f
Peers seeds: 17 , leech: 4
Size 1.36 GB
Completato 410x
Aggiunto 18.09.17 - 05:09:53
Uploader   robbyrs
Votazione (Voti: 1)


Condividi questo bittorrent:


html/blog:


bbcode/forum:




Aggiungi Commento


counter