* Dettagli Torrent   globale  | Commenti (0) 


- Alta tensione (1977) Mel Brooks.H264.Italian.English.Ac3.sub.ita.iCV-MIRCrew -


Download via torrent:
Categoria bittorrent BDRip
Descrizione
High Anxiety - Alta tensione (1977) Mel Brooks.H264.Italian.English.Ac3.sub.ita.iCV-MIRCrew

[center]by www.icv-crew.org


NO FOUND ONLY ORIGINAL RELEASE



My release is always in double track audio italian and Original audio
for select it use VLC or dvd player home
not use wmp

Alta tensione - High Anxiety (1977)

   





Titolo originale High Anxiety
Paese di produzione Stati Uniti d'America
Anno 1977
Durata 94 min
Genere commedia
Regia Mel Brooks
Soggetto Mel Brooks, Ron Clark, Rudy De Luca, Barry Levinson
Sceneggiatura Mel Brooks, Ron Clark, Rudy De Luca, Barry Levinson
Produttore Mel Brooks
Fotografia Paul Lohmann
Montaggio John C. Howard
Musiche Mel Brooks, John Morris




   Mel Brooks: Dr. Richard H Thorndyke
   Madeline Kahn: Victoria Brisbane
   Cloris Leachman: Fratella Diesel
   Harvey Korman: Dr. Montague
   Dick Van Patten: Dr. Wentworth
   Howard Morris: Professor Vekentromben
   Ron Carey: Brophy
   Lee Delano: Norton
   Barry Levinson: Dennis, il fattorino




Dopo la morte del direttore dell'"Istituto Psico-Neurotico per Individui Molto Molto Nervosi", il professor Richard H. Thorndyke (Mel Brooks), psichiatra che soffre di acrofobia (o come viene chiamata nel film, l'"alta tensione&quot, viene nominato al suo posto...........



Dr. Richard Thorndyke arrives as new administrator of the Psychoneurotic Institute for the Very, VERY Nervous to discover some suspicious goings-on. When he's framed for murder, Dr. Thorndyke must confront his own psychiatric condition, "high anxiety," in order to clear his name. An homage to the films of Alfred Hitchcock..............








[spoiler]
General
Unique ID                                : 75694030626958054036510828451994243563 (0x38F223D852C6CCF3D3FFEB35141791EB)
Complete name                            : Alta tensione - High Anxiety (1977).H264.ita.eng.multisub.iCV-MIRCrew.mkv
Format                                   : Matroska
Format version                           : Version 2
File size                                : 1.11 GiB
Duration                                 : 1h 30mn
Overall bit rate                         : 1 765 Kbps
Encoded date                             : UTC 2017-09-17T14:04:23Z
Writing application                      : HandBrake 0.10.5 2016021100
Writing library                          : Lavf55.12.0

Video
ID                                       : 1
Format                                   : AVC
Format/Info                              : Advanced Video Codec
Format profile                           : [email protected]
Format settings, CABAC                   : Yes
Format settings, ReFrames                : 4 frames
Codec ID                                 : V_MPEG4/ISO/AVC
Duration                                 : 1h 30mn
Bit rate                                 : 1 290 Kbps
Width                                    : 720 pixels
Height                                   : 384 pixels
Display aspect ratio                     : 1.875
Frame rate mode                          : Variable / Variable
Frame rate                               : 25.000 fps
Color space                              : YUV
Chroma subsampling                       : 4:2:0
Bit depth                                : 8 bits
Scan type                                : Progressive
Bits/(Pixel*Frame)                       : 0.187
Stream size                              : 827 MiB (73%)
Writing library                          : x264 core 142 r2479 dd79a61
Encoding settings                        : cabac=1 / ref=1 / deblock=1:-1:-1 / analyse=0x1:0x111 / me=hex / subme=2 / psy=1 / psy_rd=1.00:0.15 / mixed_ref=0 / me_range=16 / chroma_me=1 / trellis=0 / 8x8dct=0 / cqm=0 / deadzone=21,11 / fast_pskip=1 / chroma_qp_offset=0 / threads=3 / lookahead_threads=1 / sliced_threads=0 / nr=0 / decimate=1 / interlaced=0 / bluray_compat=0 / constrained_intra=0 / bframes=3 / b_pyramid=2 / b_adapt=1 / b_bias=0 / direct=1 / weightb=1 / open_gop=0 / weightp=1 / keyint=250 / keyint_min=25 / scenecut=40 / intra_refresh=0 / rc_lookahead=10 / rc=abr / mbtree=1 / bitrate=1290 / ratetol=1.0 / qcomp=0.60 / qpmin=0 / qpmax=69 / qpstep=4 / vbv_maxrate=20000 / vbv_bufsize=25000 / nal_hrd=none / filler=0 / ip_ratio=1.40 / aq=1:1.00
Default                                  : Yes
Forced                                   : No
Color primaries                          : BT.470-6 System B, BT.470-6 System G, BT.601-6 625, BT.1358 625, BT.1700 625 PAL, BT.1700 625 SECAM
Transfer characteristics                 : BT.709-5, BT.1361
Matrix coefficients                      : BT.601-6 525, BT.1358 525, BT.1700 NTSC, SMPTE 170M

Audio #1
ID                                       : 2
Format                                   : AC-3
Format/Info                              : Audio Coding 3
Mode extension                           : CM (complete main)
Codec ID                                 : A_AC3
Duration                                 : 1h 30mn
Bit rate mode                            : Constant
Bit rate                                 : 256 Kbps
Channel(s)                               : 2 channels
Channel positions                        : Front: L R
Sampling rate                            : 48.0 KHz
Bit depth                                : 16 bits
Compression mode                         : Lossy
Delay relative to video                  : 1mn 5s
Stream size                              : 165 MiB (15%)
Title                                    : Stereo
Language                                 : Italian
Default                                  : Yes
Forced                                   : No

Audio #2
ID                                       : 3
Format                                   : AC-3
Format/Info                              : Audio Coding 3
Mode extension                           : CM (complete main)
Codec ID                                 : A_AC3
Duration                                 : 1h 30mn
Bit rate mode                            : Constant
Bit rate                                 : 192 Kbps
Channel(s)                               : 2 channels
Channel positions                        : Front: L R
Sampling rate                            : 48.0 KHz
Bit depth                                : 16 bits
Compression mode                         : Lossy
Delay relative to video                  : 1mn 5s
Stream size                              : 124 MiB (11%)
Title                                    : Stereo
Language                                 : English
Default                                  : No
Forced                                   : No

Text #1
ID                                       : 4
Format                                   : VobSub
Codec ID                                 : S_VOBSUB
Codec ID/Info                            : The same subtitle format used on DVDs
Language                                 : Italian
Default                                  : No
Forced                                   : No

Text #2
ID                                       : 5
Format                                   : VobSub
Codec ID                                 : S_VOBSUB
Codec ID/Info                            : The same subtitle format used on DVDs
Language                                 : Dutch
Default                                  : No
Forced                                   : No

Text #3
ID                                       : 6
Format                                   : VobSub
Codec ID                                 : S_VOBSUB
Codec ID/Info                            : The same subtitle format used on DVDs
Language                                 : English
Default                                  : No
Forced                                   : No

Text #4
ID                                       : 7
Format                                   : VobSub
Codec ID                                 : S_VOBSUB
Codec ID/Info                            : The same subtitle format used on DVDs
Language                                 : French
Default                                  : No
Forced                                   : No

Text #5
ID                                       : 8
Format                                   : VobSub
Codec ID                                 : S_VOBSUB
Codec ID/Info                            : The same subtitle format used on DVDs
Language                                 : German
Default                                  : No
Forced                                   : No

Text #6
ID                                       : 9
Format                                   : VobSub
Codec ID                                 : S_VOBSUB
Codec ID/Info                            : The same subtitle format used on DVDs
Language                                 : Italian
Default                                  : No
Forced                                   : No

Text #7
ID                                       : 10
Format                                   : VobSub
Codec ID                                 : S_VOBSUB
Codec ID/Info                            : The same subtitle format used on DVDs
Language                                 : Spanish
Default                                  : No
Forced                                   : No

Text #8
ID                                       : 11
Format                                   : VobSub
Codec ID                                 : S_VOBSUB
Codec ID/Info                            : The same subtitle format used on DVDs
Language                                 : French
Default                                  : No
Forced                                   : No

Text #9
ID                                       : 12
Format                                   : VobSub
Codec ID                                 : S_VOBSUB
Codec ID/Info                            : The same subtitle format used on DVDs
Language                                 : German
Default                                  : No
Forced                                   : No

Text #10
ID                                       : 13
Format                                   : VobSub
Codec ID                                 : S_VOBSUB
Codec ID/Info                            : The same subtitle format used on DVDs
Language                                 : Spanish
Default                                  : No
Forced                                   : No

Menu
00:00:00.000                             : :Chapter 1
00:05:35.304                             : :Chapter 2
00:06:50.864                             : :Chapter 3
00:08:27.904                             : :Chapter 4
00:10:49.504                             : :Chapter 5
00:13:03.304                             : :Chapter 6
00:15:06.064                             : :Chapter 7
00:19:22.264                             : :Chapter 8
00:22:16.664                             : :Chapter 9
00:26:22.384                             : :Chapter 10
00:27:56.864                             : :Chapter 11
00:31:21.544                             : :Chapter 12
00:34:17.704                             : :Chapter 13
00:37:45.384                             : :Chapter 14
00:39:12.084                             : :Chapter 15
00:43:17.404                             : :Chapter 16
00:45:49.484                             : :Chapter 17
00:49:29.844                             : :Chapter 18
00:54:15.004                             : :Chapter 19
00:56:08.404                             : :Chapter 20
00:58:39.404                             : :Chapter 21
01:00:36.244                             : :Chapter 22
01:02:52.244                             : :Chapter 23
01:05:46.324                             : :Chapter 24
01:10:57.164                             : :Chapter 25
01:15:16.284                             : :Chapter 26
01:18:50.724                             : :Chapter 27
01:21:16.564                             : :Chapter 28
01:23:26.404                             : :Chapter 29
01:25:13.244                             : :Chapter 30
01:27:10.884                             : :Chapter 31
01:27:56.364                             : :Chapter 32


[/spoiler]

[/center]

Info: Per scaricare devi usare un client come uTorrent o Transmission
AnnounceURL
udp://tracker.coppersurfer.tk:6969/announce
Hash 3c0e78934f756a256e540d2d68a81a931a9d2f89
Peers seeds: 29 , leech: 12
Size 1.16 GB
Completato 625x
Aggiunto 18.09.17 - 04:09:06
Uploader   robbyrs
Votazione (Voti: 1)


Condividi questo bittorrent:


html/blog:


bbcode/forum:




Aggiungi Commento


counter