* Dettagli Torrent   globale  | Commenti (0) 


- 1975 Occhi bianchi sul pianeta Terra (1971) Bonus 17 m..H264.Italian.englis.Ac3.multisub.iCV-MIRCr -


Download via torrent:
Categoria bittorrent BDRip
Descrizione
The Omega Man  - 1975 Occhi bianchi sul pianeta Terra (1971) + Bonus 17 m..H264.Italian.englis.Ac3.multisub.iCV-MIRCrew

[center]by www.icv-crew.org


NO FOUND ONLY ORIGINAL RELEASE



My release is always in double track audio italian and Original audio
for select it use VLC or dvd player home
not use wmp

1975 Occhi bianchi sul pianeta Terra - The Omega Man (1971) + Bonus 17 m.

 





Titolo originale The Omega Man
Paese di produzione Stati Uniti
Anno 1971
Durata 98 min
Rapporto 2.35:1 anamorfico
Genere drammatico, fantascienza, orrore, azione
Regia Boris Sagal
Soggetto Richard Matheson (dal romanzo Io sono leggenda)
Sceneggiatura John William Corrington, Joyce Hooper Corrington
Produttore Walter Seltzer
Casa di produzione Walter Seltzer Productions
Musiche Ron Grainer



   Charlton Heston: Robert Neville
   Anthony Zerbe: Matthias
   Rosalind Cash: Lisa
   Paul Koslo: Dutch



In una Los Angeles abbandonata e spettrale si aggira Robert Neville, ex medico militare e ultimo uomo sopravvissuto a un olocausto batteriologico avvenuto due anni prima. La ricerca di generi di prima necessità da una parte e quella di mantenere la propria mente lucida in una realtà alienante dall'altra ne caratterizza le giornate............



Due to an experimental vaccine, Dr. Robert Neville is the only survivor of an apocalyptic war waged with biological weapons. The plague caused by the war has killed everyone else except for a few hundred deformed, nocturnal people calling themselves "The Family". The plague has caused them to become sensitive to light, as well as homicidally psychotic. They believe science and technology to be the cause of the war and their punishment,












[spoiler]
General
Unique ID                                : 185267610182541832923394299686532808009 (0x8B613E6AD3E68031E6515DEE8961FD49)
Complete name                            : 1975 Occhi bianchi sul pianeta Terra - The Omega Man (1971).H264.ita.eng.multisub.iCV-MIRCrew.mkv
Format                                   : Matroska
Format version                           : Version 2
File size                                : 1.12 GiB
Duration                                 : 1h 34mn
Overall bit rate                         : 1 701 Kbps
Encoded date                             : UTC 2017-09-16T09:31:09Z
Writing application                      : HandBrake 0.10.5 2016021100
Writing library                          : Lavf55.12.0

Video
ID                                       : 1
Format                                   : AVC
Format/Info                              : Advanced Video Codec
Format profile                           : [email protected]
Format settings, CABAC                   : Yes
Format settings, ReFrames                : 4 frames
Codec ID                                 : V_MPEG4/ISO/AVC
Duration                                 : 1h 34mn
Bit rate                                 : 1 300 Kbps
Width                                    : 720 pixels
Height                                   : 304 pixels
Display aspect ratio                     : 2.35:1
Frame rate mode                          : Variable / Variable
Frame rate                               : 25.000 fps
Color space                              : YUV
Chroma subsampling                       : 4:2:0
Bit depth                                : 8 bits
Scan type                                : Progressive
Bits/(Pixel*Frame)                       : 0.238
Stream size                              : 863 MiB (75%)
Writing library                          : x264 core 142 r2479 dd79a61
Encoding settings                        : cabac=1 / ref=1 / deblock=1:-1:-1 / analyse=0x1:0x111 / me=hex / subme=2 / psy=1 / psy_rd=1.00:0.15 / mixed_ref=0 / me_range=16 / chroma_me=1 / trellis=0 / 8x8dct=0 / cqm=0 / deadzone=21,11 / fast_pskip=1 / chroma_qp_offset=0 / threads=3 / lookahead_threads=1 / sliced_threads=0 / nr=0 / decimate=1 / interlaced=0 / bluray_compat=0 / constrained_intra=0 / bframes=3 / b_pyramid=2 / b_adapt=1 / b_bias=0 / direct=1 / weightb=1 / open_gop=0 / weightp=1 / keyint=250 / keyint_min=25 / scenecut=40 / intra_refresh=0 / rc_lookahead=10 / rc=abr / mbtree=1 / bitrate=1300 / ratetol=1.0 / qcomp=0.60 / qpmin=0 / qpmax=69 / qpstep=4 / vbv_maxrate=20000 / vbv_bufsize=25000 / nal_hrd=none / filler=0 / ip_ratio=1.40 / aq=1:1.00
Default                                  : Yes
Forced                                   : No
Color primaries                          : BT.470-6 System B, BT.470-6 System G, BT.601-6 625, BT.1358 625, BT.1700 625 PAL, BT.1700 625 SECAM
Transfer characteristics                 : BT.709-5, BT.1361
Matrix coefficients                      : BT.601-6 525, BT.1358 525, BT.1700 NTSC, SMPTE 170M

Audio #1
ID                                       : 2
Format                                   : AC-3
Format/Info                              : Audio Coding 3
Mode extension                           : CM (complete main)
Codec ID                                 : A_AC3
Duration                                 : 1h 34mn
Bit rate mode                            : Constant
Bit rate                                 : 192 Kbps
Channel(s)                               : 1 channel
Channel positions                        : Front: C
Sampling rate                            : 48.0 KHz
Bit depth                                : 16 bits
Compression mode                         : Lossy
Delay relative to video                  : 1mn 5s
Stream size                              : 129 MiB (11%)
Title                                    : Mono
Language                                 : Italian
Default                                  : Yes
Forced                                   : No

Audio #2
ID                                       : 3
Format                                   : AC-3
Format/Info                              : Audio Coding 3
Mode extension                           : CM (complete main)
Codec ID                                 : A_AC3
Duration                                 : 1h 34mn
Bit rate mode                            : Constant
Bit rate                                 : 192 Kbps
Channel(s)                               : 1 channel
Channel positions                        : Front: C
Sampling rate                            : 48.0 KHz
Bit depth                                : 16 bits
Compression mode                         : Lossy
Delay relative to video                  : 1mn 5s
Stream size                              : 129 MiB (11%)
Title                                    : Mono
Language                                 : English
Default                                  : No
Forced                                   : No

Text #1
ID                                       : 4
Format                                   : VobSub
Codec ID                                 : S_VOBSUB
Codec ID/Info                            : The same subtitle format used on DVDs
Language                                 : French
Default                                  : No
Forced                                   : No

Text #2
ID                                       : 5
Format                                   : VobSub
Codec ID                                 : S_VOBSUB
Codec ID/Info                            : The same subtitle format used on DVDs
Language                                 : Italian
Default                                  : No
Forced                                   : No

Text #3
ID                                       : 6
Format                                   : VobSub
Codec ID                                 : S_VOBSUB
Codec ID/Info                            : The same subtitle format used on DVDs
Language                                 : Dutch
Default                                  : No
Forced                                   : No

Text #4
ID                                       : 7
Format                                   : VobSub
Codec ID                                 : S_VOBSUB
Codec ID/Info                            : The same subtitle format used on DVDs
Language                                 : English
Default                                  : No
Forced                                   : No

Text #5
ID                                       : 8
Format                                   : VobSub
Codec ID                                 : S_VOBSUB
Codec ID/Info                            : The same subtitle format used on DVDs
Language                                 : Italian
Default                                  : No
Forced                                   : No

Menu
00:00:00.000                             : :Chapter 1
00:03:05.440                             : :Chapter 2
00:05:44.680                             : :Chapter 3
00:07:49.280                             : :Chapter 4
00:09:28.400                             : :Chapter 5
00:10:33.200                             : :Chapter 6
00:12:39.720                             : :Chapter 7
00:16:27.040                             : :Chapter 8
00:20:52.360                             : :Chapter 9
00:24:48.280                             : :Chapter 10
00:29:54.600                             : :Chapter 11
00:34:12.760                             : :Chapter 12
00:36:11.960                             : :Chapter 13
00:41:10.540                             : :Chapter 14
00:44:54.700                             : :Chapter 15
00:47:26.940                             : :Chapter 16
00:49:34.940                             : :Chapter 17
00:54:33.140                             : :Chapter 18
00:57:57.180                             : :Chapter 19
01:00:42.540                             : :Chapter 20
01:05:48.700                             : :Chapter 21
01:07:28.580                             : :Chapter 22
01:13:16.580                             : :Chapter 23
01:16:45.780                             : :Chapter 24
01:21:36.500                             : :Chapter 25
01:23:28.100                             : :Chapter 26
01:25:05.260                             : :Chapter 27
01:28:56.180                             : :Chapter 28
01:31:10.620                             : :Chapter 29
01:33:16.380                             : :Chapter 30


[/spoiler]

[/center]

Info: Per scaricare devi usare un client come uTorrent o Transmission
AnnounceURL
udp://tracker.coppersurfer.tk:6969/announce
Hash dbb50724703faefd2768bd25eefce183d2864d45
Peers seeds: 20 , leech: 8
Size 1.30 GB
Completato 590x
Aggiunto 17.09.17 - 09:09:03
Uploader   robbyrs
Votazione (Voti: 1)


Condividi questo bittorrent:


html/blog:


bbcode/forum:




Aggiungi Commento


counter