* Dettagli Torrent   globale  | Commenti (0) 


- Monella (1998).H264.Italian.Ac3.sub.eng.iCV-MIRCrew -


Download via torrent:
Categoria bittorrent BDRip
Descrizione
Monella (199.H264.Italian.Ac3.sub.eng.iCV-MIRCrew


by www.icv-crew.org


NO FOUND ONLY ORIGINAL RELEASE



My release is always in double track audio italian and Original audio
for select it use VLC or dvd player home
not use wmp

Monella (199


ENGLISH SUBTITLE INSIDE







Titolo originale Monella
Paese di produzione Italia
Anno 1998
Durata 120 min
Genere commedia, erotico
Regia Tinto Brass
Soggetto Tinto Brass
Sceneggiatura Tinto Brass, Carla Cipriani
Casa di produzione California Film
Fotografia Massimo Di Venanzo
Montaggio Tinto Brass
Musiche Pino Donaggio
Scenografia Carlo De Marino
Costumi Ivan Crnojevic




   Anna Ammirati: Lola
   Patrick Mower: André
   Mario Parodi: Masetto
   Carlo Reali: Padre di Masetto
   Serena Grandi: Zaira
   Susanna Martinková: Michelle
   Antonio Salines: Pepè
   Francesca Nunzi: Wilma
   Laura Trotter: Carmelina




Lola è una sensuale e disinibita ragazza che sta per sposare Masetto, fornaio geloso che ha deciso di "rispettarla", essendo la ragazza ancora vergine..............



Set in the 1950s Italian countryside, the film tells the story of Lola and Masetto, a young couple whose views on premarital sex differ drastically.










[spoiler]
General
Unique ID                                : 180879040468590874418240898583061340072 (0x8814093997CCE1A781ECC50EB3CC1FA
Complete name                            : Monella (199.h264.ita.sub.eng.iCV-MIRCrew.mkv
Format                                   : Matroska
Format version                           : Version 2
File size                                : 1.13 GiB
Duration                                 : 1h 44mn
Overall bit rate                         : 1 554 Kbps
Movie name                               : Monella (199.h264.ita.sub.eng.iCV-MIRCrew
Encoded date                             : UTC 2017-09-14 21:25:59
Writing application                      : mkvmerge v5.4.0 ('Piper') built on Mar 10 2012 13:34:39
Writing library                          : Lavf54.63.100
COPYRIGHT                                : robbyrs
DATE                                     : 2017

Video
ID                                       : 1
Format                                   : AVC
Format/Info                              : Advanced Video Codec
Format profile                           : [email protected]
Format settings, CABAC                   : Yes
Format settings, ReFrames                : 2 frames
Muxing mode                              : Header stripping
Codec ID                                 : V_MPEG4/ISO/AVC
Duration                                 : 1h 44mn
Bit rate                                 : 1 300 Kbps
Width                                    : 688 pixels
Height                                   : 384 pixels
Display aspect ratio                     : 16:9
Original display aspect ratio            : 16:9
Frame rate mode                          : Variable
Frame rate                               : 23.976 fps
Color space                              : YUV
Chroma subsampling                       : 4:2:0
Bit depth                                : 8 bits
Scan type                                : Progressive
Bits/(Pixel*Frame)                       : 0.205
Stream size                              : 947 MiB (82%)
Title                                    : Monella (199.h264.ita.sub.eng.iCV-MIRCrew
Writing library                          : x264 core 130 r2273
Encoding settings                        : cabac=1 / ref=2 / deblock=1:0:0 / analyse=0x1:0x131 / me=hex / subme=7 / psy=1 / psy_rd=1.00:0.00 / mixed_ref=0 / me_range=16 / chroma_me=1 / trellis=1 / 8x8dct=0 / cqm=0 / deadzone=21,11 / fast_pskip=1 / chroma_qp_offset=-2 / threads=12 / lookahead_threads=2 / sliced_threads=0 / nr=0 / decimate=1 / interlaced=0 / bluray_compat=0 / constrained_intra=0 / bframes=3 / b_pyramid=0 / b_adapt=1 / b_bias=0 / direct=3 / weightb=1 / open_gop=0 / weightp=2 / keyint=230 / keyint_min=23 / scenecut=40 / intra_refresh=0 / rc_lookahead=40 / rc=abr / mbtree=1 / bitrate=1300 / ratetol=1.0 / qcomp=0.60 / qpmin=10 / qpmax=69 / qpstep=4 / vbv_maxrate=24000 / vbv_bufsize=24000 / nal_hrd=none / ip_ratio=1.40 / aq=1:1.00
Language                                 : Italian
Default                                  : Yes
Forced                                   : No

Audio
ID                                       : 2
Format                                   : AC-3
Format/Info                              : Audio Coding 3
Mode extension                           : CM (complete main)
Muxing mode                              : Header stripping
Codec ID                                 : A_AC3
Duration                                 : 1h 44mn
Bit rate mode                            : Constant
Bit rate                                 : 256 Kbps
Channel(s)                               : 2 channels
Channel positions                        : Front: L R
Sampling rate                            : 48.0 KHz
Bit depth                                : 16 bits
Compression mode                         : Lossy
Delay relative to video                  : -5ms
Stream size                              : 191 MiB (16%)
Language                                 : Italian
Default                                  : Yes
Forced                                   : No

Text
ID                                       : 3
Format                                   : ASS
Codec ID                                 : S_TEXT/ASS
Codec ID/Info                            : Advanced Sub Station Alpha
Compression mode                         : Lossless
Language                                 : English
Default                                  : Yes
Forced                                   : No

Menu
00:00:00.000                             : :00:00:00.000
00:07:42.837                             : :00:07:42.837
00:14:05.928                             : :00:14:05.928
00:22:03.739                             : :00:22:03.739
00:33:05.150                             : :00:33:05.150
00:43:24.227                             : :00:43:24.227
00:51:35.134                             : :00:51:35.134
00:59:44.623                             : :00:59:44.623
01:11:39.504                             : :01:11:39.504
01:21:57.079                             : :01:21:57.079
01:31:32.696                             : :01:31:32.696
01:42:52.041                             : :01:42:52.041



[/spoiler]



Info: Per scaricare devi usare un client come uTorrent o Transmission
AnnounceURL
udp://tracker.coppersurfer.tk:6969/announce
Hash ac950affe24554bd1dd81c6525de6141ba91838a
Peers seeds: 43 , leech: 18
Size 1.13 GB
Completato 1017x
Aggiunto 17.09.17 - 09:09:08
Uploader   robbyrs
Votazione (Voti: 0)


Condividi questo bittorrent:


html/blog:


bbcode/forum:




Aggiungi Commento


counter