* Dettagli Torrent   globale  | Commenti (0) 


- Sex and the City: The Movie (2008).H264.Italian.English.Ac3.5.1.sub.NUita.eng.iCV-MIRCrew -


Download via torrent:
Categoria bittorrent BDRip
Descrizione
Sex and the City: The Movie (200.H264.Italian.English.Ac3.5.1.sub.NUita.eng.iCV-MIRCrew

[center]by www.icv-crew.org


NO FOUND ONLY ORIGINAL RELEASE



My release is always in double track audio italian and Original audio
for select it use VLC or dvd player home
not use wmp

Sex and the City: The Movie (200







Titolo originale Sex and the City: The Movie
Lingua originale inglese
Paese di produzione Stati Uniti
Anno 2008
Durata 145 min
Rapporto 1,85:1
Genere commedia
Regia Michael Patrick King
Soggetto Candace Bushnell
Sceneggiatura Michael Patrick King
Produttore Michael Patrick King, Darren Star e Sarah Jessica Parker
Produttore esecutivo Toby Emmerich, Richard Brener, Kathy Busby, Jonathan Filley
Casa di produzione Darren Star Productions, HBO Films, New Line Cinema
Distribuzione (Italia) Warner Bros. Pictures
Fotografia John Thomas
Montaggio Michael Berenbaum
Musiche Aaron Zigman
Scenografia Jeremy Conway
Costumi Patricia Field




   Sarah Jessica Parker: Carrie Bradshaw
   Kristin Davis: Charlotte York
   Kim Cattrall: Samantha Jones
   Cynthia Nixon: Miranda Hobbes
   Chris Noth: Mr. Big
   Jason Lewis: Smith Jerrod
   Evan Handler: Harry Goldenblatt
   Jennifer Hudson: Louise
   David Eigenberg: Steve Brady
   Willie Garson: Stanford Blatch
   Mario Cantone: Anthony Marentino
   Lynn Cohen: Magda




Il film riprende tre anni dopo la fine della serie tv. Dopo un riassunto iniziale per spiegare brevemente cosa è successo alle protagoniste nel corso delle sei stagioni e dei tre anni intercorsi dall'ultima puntata, il film ha realmente inizio. Carrie è alla ricerca di una casa in cui andare a vivere con Big, Miranda è stressata dal lavoro e non ha più rapporti sessuali con Steve, Charlotte cerca di crescere la sua bambina cinese e Samantha fa avanti ed indietro da Los Angeles, dove vive con Smith, a New York...............



A New York writer on sex and love is finally getting married to her Mr. Big. But her three best girlfriends must console her after one of them inadvertently leads Mr. Big to jilt her.











[spoiler]
General
Unique ID                                : 176805270186223725569434227119672350870 (0x850374D7CA8C1A4E949B23B39B4D5896)
Complete name                            : Sex and the City (200.H264.ita.eng.sub.NUita.eng.iCV-MIRCrew.mkv
Format                                   : Matroska
Format version                           : Version 2
File size                                : 2.21 GiB
Duration                                 : 2h 25mn
Overall bit rate                         : 2 182 Kbps
Movie name                               : icv-crew
Encoded date                             : UTC 2016-11-27 16:56:10
Writing application                      : mkvmerge v5.4.0 ('Piper') built on Mar 10 2012 13:34:39
Writing library                          : Lavf54.63.100
COPYRIGHT                                : robbyrs
DATE                                     : 2017

Video
ID                                       : 1
Format                                   : AVC
Format/Info                              : Advanced Video Codec
Format profile                           : [email protected]
Format settings, CABAC                   : Yes
Format settings, ReFrames                : 2 frames
Muxing mode                              : Header stripping
Codec ID                                 : V_MPEG4/ISO/AVC
Duration                                 : 2h 25mn
Bit rate                                 : 1 290 Kbps
Width                                    : 720 pixels
Height                                   : 404 pixels
Display aspect ratio                     : 16:9
Frame rate mode                          : Variable
Frame rate                               : 23.976 fps
Color space                              : YUV
Chroma subsampling                       : 4:2:0
Bit depth                                : 8 bits
Scan type                                : Progressive
Bits/(Pixel*Frame)                       : 0.185
Stream size                              : 1.26 GiB (57%)
Title                                    : Sex and the City (200.H264.ita.eng.sub.eng.iCV-MIRCrew
Writing library                          : x264 core 130 r2273
Encoding settings                        : cabac=1 / ref=2 / deblock=1:0:0 / analyse=0x1:0x131 / me=hex / subme=7 / psy=1 / psy_rd=1.00:0.00 / mixed_ref=0 / me_range=16 / chroma_me=1 / trellis=1 / 8x8dct=0 / cqm=0 / deadzone=21,11 / fast_pskip=1 / chroma_qp_offset=-2 / threads=12 / lookahead_threads=2 / sliced_threads=0 / nr=0 / decimate=1 / interlaced=0 / bluray_compat=0 / constrained_intra=0 / bframes=3 / b_pyramid=0 / b_adapt=1 / b_bias=0 / direct=3 / weightb=1 / open_gop=0 / weightp=2 / keyint=230 / keyint_min=23 / scenecut=40 / intra_refresh=0 / rc_lookahead=40 / rc=abr / mbtree=1 / bitrate=1290 / ratetol=1.0 / qcomp=0.60 / qpmin=10 / qpmax=69 / qpstep=4 / vbv_maxrate=24000 / vbv_bufsize=24000 / nal_hrd=none / ip_ratio=1.40 / aq=1:1.00
Default                                  : Yes
Forced                                   : No
DURATION                                 : 02:25:11.161000000
NUMBER_OF_FRAMES                         : 208859
NUMBER_OF_BYTES                          : 9135296256
_STATISTICS_WRITING_APP                  : mkvmerge v8.3.0 ('Over the Horizon') 64bit
_STATISTICS_WRITING_DATE_UTC             : 2016-11-27 16:56:10
_STATISTICS_TAGS                         : BPS DURATION NUMBER_OF_FRAMES NUMBER_OF_BYTES

Audio #1
ID                                       : 2
Format                                   : AC-3
Format/Info                              : Audio Coding 3
Mode extension                           : CM (complete main)
Muxing mode                              : Header stripping
Codec ID                                 : A_AC3
Duration                                 : 2h 25mn
Bit rate mode                            : Constant
Bit rate                                 : 448 Kbps
Channel(s)                               : 6 channels
Channel positions                        : Front: L C R, Side: L R, LFE
Sampling rate                            : 48.0 KHz
Bit depth                                : 16 bits
Compression mode                         : Lossy
Delay relative to video                  : -5ms
Stream size                              : 465 MiB (21%)
Title                                    : Italiano AC3 5.1
Language                                 : Italian
Default                                  : Yes
Forced                                   : No
DURATION                                 : 02:25:11.264000000
NUMBER_OF_FRAMES                         : 272227
NUMBER_OF_BYTES                          : 487830784
_STATISTICS_WRITING_APP                  : mkvmerge v8.3.0 ('Over the Horizon') 64bit
_STATISTICS_WRITING_DATE_UTC             : 2016-11-27 16:56:10
_STATISTICS_TAGS                         : BPS DURATION NUMBER_OF_FRAMES NUMBER_OF_BYTES

Audio #2
ID                                       : 3
Format                                   : AC-3
Format/Info                              : Audio Coding 3
Mode extension                           : CM (complete main)
Muxing mode                              : Header stripping
Codec ID                                 : A_AC3
Duration                                 : 2h 25mn
Bit rate mode                            : Constant
Bit rate                                 : 448 Kbps
Channel(s)                               : 6 channels
Channel positions                        : Front: L C R, Side: L R, LFE
Sampling rate                            : 48.0 KHz
Bit depth                                : 16 bits
Compression mode                         : Lossy
Delay relative to video                  : -5ms
Stream size                              : 465 MiB (21%)
Title                                    : English AC3 5.1
Language                                 : English
Default                                  : No
Forced                                   : No
DURATION                                 : 02:25:11.264000000
NUMBER_OF_FRAMES                         : 272227
NUMBER_OF_BYTES                          : 487830784
_STATISTICS_WRITING_APP                  : mkvmerge v8.3.0 ('Over the Horizon') 64bit
_STATISTICS_WRITING_DATE_UTC             : 2016-11-27 16:56:10
_STATISTICS_TAGS                         : BPS DURATION NUMBER_OF_FRAMES NUMBER_OF_BYTES

Text #1
ID                                       : 4
Format                                   : ASS
Codec ID                                 : S_TEXT/ASS
Codec ID/Info                            : Advanced Sub Station Alpha
Compression mode                         : Lossless
Title                                    : Italiano SDH
Language                                 : Italian
Default                                  : No
Forced                                   : No
DURATION                                 : 02:16:34.145000000
NUMBER_OF_FRAMES                         : 1253
NUMBER_OF_BYTES                          : 49805
_STATISTICS_WRITING_APP                  : mkvmerge v8.3.0 ('Over the Horizon') 64bit
_STATISTICS_WRITING_DATE_UTC             : 2016-11-27 16:56:10
_STATISTICS_TAGS                         : BPS DURATION NUMBER_OF_FRAMES NUMBER_OF_BYTES

Text #2
ID                                       : 5
Format                                   : ASS
Codec ID                                 : S_TEXT/ASS
Codec ID/Info                            : Advanced Sub Station Alpha
Compression mode                         : Lossless
Title                                    : English SDH
Language                                 : English
Default                                  : No
Forced                                   : No
DURATION                                 : 02:16:34.520000000
NUMBER_OF_FRAMES                         : 1816
NUMBER_OF_BYTES                          : 69661
_STATISTICS_WRITING_APP                  : mkvmerge v8.3.0 ('Over the Horizon') 64bit
_STATISTICS_WRITING_DATE_UTC             : 2016-11-27 16:56:10
_STATISTICS_TAGS                         : BPS DURATION NUMBER_OF_FRAMES NUMBER_OF_BYTES

Menu
00:00:00.000                             : :Two Ls, Four Girls
00:05:53.895                             : :State Troopers
00:12:46.265                             : :Trooper Games
00:19:22.870                             : :Culture Clash
00:25:26.274                             : :Cat Game
00:33:18.788                             : :A Murder Investigation
00:39:23.361                             : :Who's Jurisdiction Is It?
00:44:37.549                             : :In the Lion's Den
00:51:01.641                             : :A Lotta Pot
00:56:55.078                             : rug Conspiracy
01:02:44.594                             : :Illicit Love
01:09:46.932                             : :Burger Punk
01:16:39.261                             : :Bikers
01:23:01.059                             : :Target Practice
01:30:23.167                             : :2 Minutes
01:35:58.419                             : :Shut Down
01:41:10.481                             : :Farva's Surprise
01:47:06.670                             : :You Could Be a Hero
01:52:26.656                             : :The Governor's Letter
01:58:51.582                             : :End Credits
02:05:07.458                             : :Cyberbanishment.
02:12:02.372                             : :Witch or Sexy Kitten.
02:20:29.421                             : :Hasn't Lost the Urge.


[/spoiler]

[/center]

Info: Per scaricare devi usare un client come uTorrent o Transmission
AnnounceURL
udp://tracker.coppersurfer.tk:6969/announce
Hash 56c207ce86185c443d56cef25c4e222868f29ddd
Peers seeds: 20 , leech: 2
Size 2.21 GB
Completato 331x
Aggiunto 16.09.17 - 05:09:55
Uploader   robbyrs
Votazione (Voti: 1)


Condividi questo bittorrent:


html/blog:


bbcode/forum:




Aggiungi Commento


counter