* Dettagli Torrent   globale  | Commenti (0) 


- The Black Hole - Il buco nero (1979).H264.Italian.English.ger.Ac3.5.1.multisub.iCV-MIRCrew -


Download via torrent:
Categoria bittorrent BDRip
Descrizione
The Black Hole - Il buco nero (1979).H264.Italian.English.ger.Ac3.5.1.multisub.iCV-MIRCrew

[center]by www.icv-crew.org



NO FOUND ONLY ORIGINAL RELEASE



My release is always in double track audio italian and Original audio
for select it use VLC or dvd player home
not use wmp

The Black Hole - Il buco nero (1979)







Titolo originale The Black Hole
Paese di produzione Stati Uniti d'America
Anno 1979
Durata 98 min
Rapporto 2,35 : 1
Genere fantascienza
Regia Gary Nelson
Soggetto Jeb Rosebrook, Bob Barbash, Richard H. Landau
Sceneggiatura Jeb Rosebrook, Gerry Day
Fotografia Frank V. Phillips
Montaggio G. Gregg McLaughlin
Musiche John Barry
Scenografia Frank R. McKelvy, Roger M. Shook
Costumi Bill Thomas




   Maximilian Schell: Dr. Hans Reinhardt
   Robert Forster: Cap. Dan Holland
   Joseph Bottoms: Ten. Charles Pizer
   Yvette Mimieux: Dr. Kate McCrae
   Anthony Perkins: Dr. Alex Durant
   Ernest Borgnine: Harry Booth
   Tom McLoughlin: Cap. S.T.A.R.
   Gary Nelson: drone a cui è tolta la maschera (non accreditato)




Verso la fine di una missione esplorativa per trovare luoghi abitabili nello spazio, l'astronave terrestre USS Palomino è in rotta di ritorno per la Terra. L'equipaggio è composto dal capitano Dan Holland, il primo ufficiale Charlie Pizer, la scienziata sensitiva Kate McCrae, il giornalista Harry Booth, il dottor Alex Durant e il robot calcolatore V.I.N.CENT..................



A research vessel finds a missing ship, commanded by a mysterious scientist, on the edge of a black hole.  








[spoiler]
General
Unique ID                                : 232591354444036643524691987689774768217 (0xAEFB77269CE49B42926D6A6B8687E059)
Complete name                            : The Black Hole - Il buco nero (1979).H264.ita.eng.ger.multisub.iCV-MIRCrew.mkv
Format                                   : Matroska
Format version                           : Version 2
File size                                : 1.44 GiB
Duration                                 : 1h 31mn
Overall bit rate                         : 2 255 Kbps
Movie name                               : icv-crew
Encoded date                             : UTC 2017-09-15T16:57:27Z
Writing application                      : mkvmerge v5.4.0 ('Piper') built on Mar 10 2012 13:34:39
Writing library                          : Lavf55.12.0

Video
ID                                       : 1
Format                                   : AVC
Format/Info                              : Advanced Video Codec
Format profile                           : [email protected]
Format settings, CABAC                   : Yes
Format settings, ReFrames                : 4 frames
Muxing mode                              : Header stripping
Codec ID                                 : V_MPEG4/ISO/AVC
Duration                                 : 1h 31mn
Bit rate                                 : 1 300 Kbps
Width                                    : 720 pixels
Height                                   : 304 pixels
Display aspect ratio                     : 2.35:1
Frame rate mode                          : Variable
Frame rate                               : 25.000 fps
Color space                              : YUV
Chroma subsampling                       : 4:2:0
Bit depth                                : 8 bits
Scan type                                : Progressive
Bits/(Pixel*Frame)                       : 0.238
Stream size                              : 818 MiB (55%)
Title                                    : The Black Hole - Il buco nero (1979).H264.ita.eng.ger.multisub.iCV-MIRCrew
Writing library                          : x264 core 142 r2479 dd79a61
Encoding settings                        : cabac=1 / ref=1 / deblock=1:-1:-1 / analyse=0x1:0x111 / me=hex / subme=2 / psy=1 / psy_rd=1.00:0.15 / mixed_ref=0 / me_range=16 / chroma_me=1 / trellis=0 / 8x8dct=0 / cqm=0 / deadzone=21,11 / fast_pskip=1 / chroma_qp_offset=0 / threads=3 / lookahead_threads=1 / sliced_threads=0 / nr=0 / decimate=1 / interlaced=0 / bluray_compat=0 / constrained_intra=0 / bframes=3 / b_pyramid=2 / b_adapt=1 / b_bias=0 / direct=1 / weightb=1 / open_gop=0 / weightp=1 / keyint=250 / keyint_min=25 / scenecut=40 / intra_refresh=0 / rc_lookahead=10 / rc=abr / mbtree=1 / bitrate=1300 / ratetol=1.0 / qcomp=0.60 / qpmin=0 / qpmax=69 / qpstep=4 / vbv_maxrate=20000 / vbv_bufsize=25000 / nal_hrd=none / filler=0 / ip_ratio=1.40 / aq=1:1.00
Language                                 : Italian
Default                                  : Yes
Forced                                   : No
Color primaries                          : BT.470-6 System B, BT.470-6 System G, BT.601-6 625, BT.1358 625, BT.1700 625 PAL, BT.1700 625 SECAM
Transfer characteristics                 : BT.709-5, BT.1361
Matrix coefficients                      : BT.601-6 525, BT.1358 525, BT.1700 NTSC, SMPTE 170M

Audio #1
ID                                       : 2
Format                                   : AC-3
Format/Info                              : Audio Coding 3
Mode extension                           : CM (complete main)
Muxing mode                              : Header stripping
Codec ID                                 : A_AC3
Duration                                 : 1h 31mn
Bit rate mode                            : Constant
Bit rate                                 : 384 Kbps
Channel(s)                               : 6 channels
Channel positions                        : Front: L C R, Side: L R, LFE
Sampling rate                            : 48.0 KHz
Bit depth                                : 16 bits
Compression mode                         : Lossy
Delay relative to video                  : -5ms
Stream size                              : 251 MiB (17%)
Title                                    : Surround
Language                                 : Italian
Default                                  : Yes
Forced                                   : No

Audio #2
ID                                       : 3
Format                                   : AC-3
Format/Info                              : Audio Coding 3
Mode extension                           : CM (complete main)
Muxing mode                              : Header stripping
Codec ID                                 : A_AC3
Duration                                 : 1h 31mn
Bit rate mode                            : Constant
Bit rate                                 : 384 Kbps
Channel(s)                               : 6 channels
Channel positions                        : Front: L C R, Side: L R, LFE
Sampling rate                            : 48.0 KHz
Bit depth                                : 16 bits
Compression mode                         : Lossy
Delay relative to video                  : -5ms
Stream size                              : 251 MiB (17%)
Title                                    : Surround
Language                                 : English
Default                                  : No
Forced                                   : No

Audio #3
ID                                       : 4
Format                                   : AC-3
Format/Info                              : Audio Coding 3
Mode extension                           : CM (complete main)
Muxing mode                              : Header stripping
Codec ID                                 : A_AC3
Duration                                 : 1h 31mn
Bit rate mode                            : Constant
Bit rate                                 : 192 Kbps
Channel(s)                               : 2 channels
Channel positions                        : Front: L R
Sampling rate                            : 48.0 KHz
Bit depth                                : 16 bits
Compression mode                         : Lossy
Delay relative to video                  : -5ms
Stream size                              : 126 MiB (9%)
Title                                    : Stereo
Language                                 : German
Default                                  : No
Forced                                   : No

Text #1
ID                                       : 5
Format                                   : VobSub
Muxing mode                              : zlib
Codec ID                                 : S_VOBSUB
Codec ID/Info                            : The same subtitle format used on DVDs
Language                                 : Italian
Default                                  : No
Forced                                   : No

Text #2
ID                                       : 6
Format                                   : VobSub
Muxing mode                              : zlib
Codec ID                                 : S_VOBSUB
Codec ID/Info                            : The same subtitle format used on DVDs
Language                                 : English
Default                                  : No
Forced                                   : No

Text #3
ID                                       : 7
Format                                   : VobSub
Muxing mode                              : zlib
Codec ID                                 : S_VOBSUB
Codec ID/Info                            : The same subtitle format used on DVDs
Language                                 : French
Default                                  : No
Forced                                   : No

Text #4
ID                                       : 8
Format                                   : VobSub
Muxing mode                              : zlib
Codec ID                                 : S_VOBSUB
Codec ID/Info                            : The same subtitle format used on DVDs
Language                                 : Italian
Default                                  : No
Forced                                   : No

Text #5
ID                                       : 9
Format                                   : VobSub
Muxing mode                              : zlib
Codec ID                                 : S_VOBSUB
Codec ID/Info                            : The same subtitle format used on DVDs
Language                                 : German
Default                                  : No
Forced                                   : No

Text #6
ID                                       : 10
Format                                   : VobSub
Muxing mode                              : zlib
Codec ID                                 : S_VOBSUB
Codec ID/Info                            : The same subtitle format used on DVDs
Language                                 : Spanish
Default                                  : No
Forced                                   : No

Menu
00:00:00.000                             : :Chapter 1
00:08:23.920                             : :Chapter 2
00:18:47.200                             : :Chapter 3
00:29:48.080                             : :Chapter 4
00:38:30.520                             : :Chapter 5
00:49:29.320                             : :Chapter 6
01:00:56.048                             : :Chapter 7
01:11:25.288                             : :Chapter 8
01:19:37.928                             : :Chapter 9
01:29:00.728                             : :Chapter 10



[/spoiler]

[/center]

Info: Per scaricare devi usare un client come uTorrent o Transmission
AnnounceURL
udp://tracker.coppersurfer.tk:6969/announce
Hash 53fa552fa776cfdc80e7e8c03114f28e6f68c248
Peers seeds: 37 , leech: 5
Size 1.46 GB
Completato 646x
Aggiunto 16.09.17 - 04:09:07
Uploader   robbyrs
Votazione (Voti: 1)


Condividi questo bittorrent:


html/blog:


bbcode/forum:




Aggiungi Commento


counter