* Dettagli Torrent   globale  | Commenti (0) 


- Quella villa accanto al cimitero (1981).H264.Italian.English.Ac3.iCV-MIRCrew -


Download via torrent:
Categoria bittorrent BDRip
Descrizione
The House by the Cemetery - Quella villa accanto al cimitero (1981).H264.Italian.English.Ac3.iCV-MIRCrew

[center]by www.icv-crew.org


NO FOUND ONLY ORIGINAL RELEASE



My release is always in double track audio italian and Original audio
for select it use VLC or dvd player home
not use wmp

Quella villa accanto al cimitero - The House by the Cemetery (1981)

   






Titolo originale Quella villa accanto al cimitero
Lingua originale italiano + inglese
Paese di produzione Italia
Anno 1981
Durata 87 min
Genere orrore
Regia Lucio Fulci
Soggetto Elisa Livia Briganti
Sceneggiatura Lucio Fulci, Giorgio Mariuzzo, Dardano Sacchetti
Produttore Fabrizio De Angelis
Distribuzione (Italia) Medusa Film
Fotografia Sergio Salvati
Montaggio Vincenzo Tomassi
Effetti speciali Gino De Rossi
Musiche Walter Rizzati
Scenografia Massimo Lentini
Costumi Massimo Lentini
Trucco Maurizio Trani, Giannetto De Rossi (solo nei titoli)




   Katherine MacColl: Lucy Boyle
   Paolo Malco: Dottor Norman Boyle
   Ania Pieroni: Ann
   Giovanni Frezza: Bob Boyle
   Silvia Collatina: Mae Freudstein
   Dagmar Lassander: Laura Glitterson
   Giovanni De Nava: Dottor Jacob Freudstein
   Daniela Doria: prima vittima donna
   Ranieri Ferrara: Steven
   Giampaolo Saccarola: Daniel Douglas
   Carlo De Mejo: signor Wheatley
   Kenneth A. Olsen: Harold
   Elmer Johnsson: guardiano del cimitero
   Teresa Rossi Passante: Mary Freudstein
   Lucio Fulci: professor Muller




Nell'immaginaria città di New Whitby, situata nel New England, una ragazza si sta rivestendo nella cantina di una casa abbandonata, dopo aver fatto l'amore con il suo ragazzo. Dopo averlo ripetutamente chiamato, senza ottenere una risposta, la ragazza scopre che il ragazzo è stato brutalmente ucciso e.......................



A New England home is terrorized by a series of murders, unbeknownst to the guests that a gruesome secret is hiding in the basement.








[spoiler]
General
Unique ID                                : 212090167218916077231675768084896192443 (0x9F8F1494D009121EB93254D3902497BB)
Complete name                            : Quella villa accanto al cimitero - The House by the Cemetery (1981).H264.ita.eng.iCV-MIRCrew
Format                                   : Matroska
Format version                           : Version 2
File size                                : 1.10 GiB
Duration                                 : 1h 26mn
Overall bit rate                         : 1 817 Kbps
Movie name                               : icv-crew
Encoded date                             : UTC 2017-09-14 12:23:50
Writing application                      : mkvmerge v5.4.0 ('Piper') built on Mar 10 2012 13:34:39
Writing library                          : libebml v1.2.3 + libmatroska v1.3.0

Video
ID                                       : 1
Format                                   : AVC
Format/Info                              : Advanced Video Codec
Format profile                           : [email protected]
Format settings, CABAC                   : Yes
Format settings, ReFrames                : 2 frames
Muxing mode                              : Header stripping
Codec ID                                 : V_MPEG4/ISO/AVC
Duration                                 : 1h 26mn
Bit rate                                 : 1 300 Kbps
Width                                    : 718 pixels
Height                                   : 304 pixels
Display aspect ratio                     : 2.35:1
Original display aspect ratio            : 2.35:1
Frame rate mode                          : Variable
Frame rate                               : 23.976 fps
Color space                              : YUV
Chroma subsampling                       : 4:2:0
Bit depth                                : 8 bits
Scan type                                : Progressive
Bits/(Pixel*Frame)                       : 0.248
Stream size                              : 784 MiB (70%)
Title                                    : Quella villa accanto al cimitero - The House by the Cemetery (1981).H264.ita.eng.iCV-MIRCrew
Writing library                          : x264 core 130 r2273
Encoding settings                        : cabac=1 / ref=2 / deblock=1:0:0 / analyse=0x1:0x131 / me=hex / subme=7 / psy=1 / psy_rd=1.00:0.00 / mixed_ref=0 / me_range=16 / chroma_me=1 / trellis=1 / 8x8dct=0 / cqm=0 / deadzone=21,11 / fast_pskip=1 / chroma_qp_offset=-2 / threads=12 / lookahead_threads=2 / sliced_threads=0 / nr=0 / decimate=1 / interlaced=0 / bluray_compat=0 / constrained_intra=0 / bframes=3 / b_pyramid=0 / b_adapt=1 / b_bias=0 / direct=3 / weightb=1 / open_gop=0 / weightp=2 / keyint=230 / keyint_min=23 / scenecut=40 / intra_refresh=0 / rc_lookahead=40 / rc=abr / mbtree=1 / bitrate=1300 / ratetol=1.0 / qcomp=0.60 / qpmin=10 / qpmax=69 / qpstep=4 / vbv_maxrate=24000 / vbv_bufsize=24000 / nal_hrd=none / ip_ratio=1.40 / aq=1:1.00
Language                                 : Italian
Default                                  : Yes
Forced                                   : No

Audio #1
ID                                       : 2
Format                                   : AC-3
Format/Info                              : Audio Coding 3
Mode extension                           : CM (complete main)
Muxing mode                              : Header stripping
Codec ID                                 : A_AC3
Duration                                 : 1h 26mn
Bit rate mode                            : Constant
Bit rate                                 : 256 Kbps
Channel(s)                               : 2 channels
Channel positions                        : Front: L R
Sampling rate                            : 48.0 KHz
Bit depth                                : 16 bits
Compression mode                         : Lossy
Delay relative to video                  : -5ms
Stream size                              : 158 MiB (14%)
Title                                    : Ac3 Ita
Language                                 : Italian
Default                                  : Yes
Forced                                   : No

Audio #2
ID                                       : 3
Format                                   : AC-3
Format/Info                              : Audio Coding 3
Mode extension                           : CM (complete main)
Muxing mode                              : Header stripping
Codec ID                                 : A_AC3
Duration                                 : 1h 26mn
Bit rate mode                            : Constant
Bit rate                                 : 256 Kbps
Channel(s)                               : 2 channels
Channel positions                        : Front: L R
Sampling rate                            : 48.0 KHz
Bit depth                                : 16 bits
Compression mode                         : Lossy
Delay relative to video                  : -5ms
Stream size                              : 158 MiB (14%)
Title                                    : Ac3 Eng
Language                                 : English
Default                                  : No
Forced                                   : No



[/spoiler]

[/center]

Info: Per scaricare devi usare un client come uTorrent o Transmission
AnnounceURL
udp://tracker.coppersurfer.tk:6969/announce
Hash 4f7b32a7c93224c487a2be4531c3fe92f546db7c
Peers seeds: 29 , leech: 5
Size 1.10 GB
Completato 503x
Aggiunto 15.09.17 - 10:09:47
Uploader   robbyrs
Votazione (Voti: 2)


Condividi questo bittorrent:


html/blog:


bbcode/forum:




Aggiungi Commento


counter