* Dettagli Torrent   globale  | Commenti (0) 


- I Frati Rossi - Sexorgien der roten Mönche (1988).H264.Italian.English.Ac3.sub.ita.iCV-MIRCrew -


Download via torrent:
Categoria bittorrent BDRip
Descrizione
The Red Monks - I Frati Rossi - Sexorgien der roten Mönche (198.H264.Italian.English.Ac3.sub.ita.iCV-MIRCrew

[center]by www.icv-crew.org


NO FOUND ONLY ORIGINAL RELEASE



My release is always in double track audio italian and Original audio
for select it use VLC or dvd player home
not use wmp

I Frati Rossi - The Red Monks - Sexorgien der roten Mönche (198







Paese di produzione Italia
Anno 1988
Durata 90 min
Genere Horror, erotico
Regia Gianni Martucci
Soggetto Luciana Anna Spacca
Sceneggiatura Gianni Martucci,
Pino Buricchi
Produttore Pino Buricchi,
Lucio Fulci
Casa di produzione Natmas Productions
Distribuzione (Italia) Chance Film
Fotografia Sergio Rubini
Montaggio Vanio Amici
Musiche Paolo Rustichelli
Scenografia Joseph Teichner
Costumi Silvio Laurenzi
Trucco Rino Todero




   Gerardo Amato: conte Roberto Gherghi
   Lara Wendel: Ramona Icardi/contessa Gherghi
   Malisa Longo: governante Priscilla
   Richard Brown: Ben
   Claudio Pacifico:
   Mary Maxwell: cameriera Lucille
   Ronald Russo: Riccardo Gherghi
   Ludovico Dello Jojo: notaio Berti




Un aristocratico, proprietario di un maniero medievale, sposa una ragazza molto giovane e ingenua e la porta a vivere nel castello, bellissimo e suggestivo di giorno, abbastanza cupo e inquietante di notte.............



A young woman weds a seemingly charming young man, and moves into his ancient mansion. She quickly learns to hate the old mansion and its inhabitants, while she gets frustrated with her ...










[spoiler]
General
Unique ID                                : 260492722965037323574289519158844254701 (0xC3F912D3DDF1B67B535B01AC9DACE9ED)
Complete name                            : I Frati Rossi - Sexorgien der roten Mönche (198.H264.ita.eng.ger.iCV-MIRCrew.mkv
Format                                   : Matroska
Format version                           : Version 2
File size                                : 1.10 GiB
Duration                                 : 1h 25mn
Overall bit rate                         : 1 843 Kbps
Encoded date                             : UTC 2017-09-14T12:37:53Z
Writing application                      : HandBrake 0.10.5 2016021100
Writing library                          : Lavf55.12.0

Video
ID                                       : 1
Format                                   : AVC
Format/Info                              : Advanced Video Codec
Format profile                           : [email protected]
Format settings, CABAC                   : Yes
Format settings, ReFrames                : 4 frames
Codec ID                                 : V_MPEG4/ISO/AVC
Duration                                 : 1h 25mn
Nominal bit rate                         : 1 300 Kbps
Width                                    : 720 pixels
Height                                   : 410 pixels
Display aspect ratio                     : 16:9
Frame rate mode                          : Variable
Frame rate                               : 25.000 fps
Color space                              : YUV
Chroma subsampling                       : 4:2:0
Bit depth                                : 8 bits
Scan type                                : Progressive
Bits/(Pixel*Frame)                       : 0.176
Writing library                          : x264 core 142 r2479 dd79a61
Encoding settings                        : cabac=1 / ref=1 / deblock=1:0:0 / analyse=0x1:0x111 / me=hex / subme=2 / psy=1 / psy_rd=1.00:0.00 / mixed_ref=0 / me_range=16 / chroma_me=1 / trellis=0 / 8x8dct=0 / cqm=0 / deadzone=21,11 / fast_pskip=1 / chroma_qp_offset=0 / threads=12 / lookahead_threads=3 / sliced_threads=0 / nr=0 / decimate=1 / interlaced=0 / bluray_compat=0 / constrained_intra=0 / bframes=3 / b_pyramid=2 / b_adapt=1 / b_bias=0 / direct=1 / weightb=1 / open_gop=0 / weightp=1 / keyint=250 / keyint_min=25 / scenecut=40 / intra_refresh=0 / rc_lookahead=10 / rc=abr / mbtree=1 / bitrate=1300 / ratetol=1.0 / qcomp=0.60 / qpmin=0 / qpmax=69 / qpstep=4 / vbv_maxrate=20000 / vbv_bufsize=25000 / nal_hrd=none / filler=0 / ip_ratio=1.40 / aq=1:1.00
Default                                  : Yes
Forced                                   : No
Color primaries                          : BT.470-6 System B, BT.470-6 System G, BT.601-6 625, BT.1358 625, BT.1700 625 PAL, BT.1700 625 SECAM
Transfer characteristics                 : BT.709-5, BT.1361
Matrix coefficients                      : BT.601-6 525, BT.1358 525, BT.1700 NTSC, SMPTE 170M

Audio #1
ID                                       : 2
Format                                   : AC-3
Format/Info                              : Audio Coding 3
Mode extension                           : CM (complete main)
Codec ID                                 : A_AC3
Duration                                 : 1h 25mn
Bit rate mode                            : Constant
Bit rate                                 : 192 Kbps
Channel(s)                               : 2 channels
Channel positions                        : Front: L R
Sampling rate                            : 48.0 KHz
Bit depth                                : 16 bits
Compression mode                         : Lossy
Delay relative to video                  : 1mn 5s
Stream size                              : 117 MiB (10%)
Title                                    : Stereo
Language                                 : Italian
Default                                  : Yes
Forced                                   : No

Audio #2
ID                                       : 3
Format                                   : AC-3
Format/Info                              : Audio Coding 3
Mode extension                           : CM (complete main)
Codec ID                                 : A_AC3
Duration                                 : 1h 25mn
Bit rate mode                            : Constant
Bit rate                                 : 192 Kbps
Channel(s)                               : 2 channels
Channel positions                        : Front: L R
Sampling rate                            : 48.0 KHz
Bit depth                                : 16 bits
Compression mode                         : Lossy
Delay relative to video                  : 1mn 5s
Stream size                              : 117 MiB (10%)
Title                                    : Stereo
Language                                 : English
Default                                  : No
Forced                                   : No

Audio #3
ID                                       : 4
Format                                   : AAC
Format/Info                              : Advanced Audio Codec
Format profile                           : LC
Codec ID                                 : A_AAC
Duration                                 : 1h 25mn
Channel(s)                               : 2 channels
Channel positions                        : Front: L R
Sampling rate                            : 48.0 KHz
Compression mode                         : Lossy
Delay relative to video                  : 1mn 5s
Title                                    : Stereo
Language                                 : German
Default                                  : No
Forced                                   : No

Menu
00:00:00.000                             : :Chapter 1
00:07:07.240                             : :Chapter 2
00:14:00.720                             : :Chapter 3
00:23:10.640                             : :Chapter 4
00:28:09.520                             : :Chapter 5
00:34:30.840                             : :Chapter 6
00:41:38.280                             : :Chapter 7
00:48:45.000                             : :Chapter 8
00:56:01.840                             : :Chapter 9
01:02:15.320                             : :Chapter 10
01:10:41.760                             : :Chapter 11
01:16:39.840                             : :Chapter 12


[/spoiler]

[/center]

Info: Per scaricare devi usare un client come uTorrent o Transmission
AnnounceURL
udp://tracker.coppersurfer.tk:6969/announce
Hash b7d9642ad705722aa73a5ee526cd1a292b86295f
Peers seeds: 31 , leech: 5
Size 1.10 GB
Completato 752x
Aggiunto 15.09.17 - 09:09:54
Uploader   robbyrs
Votazione (Voti: 1)


Condividi questo bittorrent:


html/blog:


bbcode/forum:




Aggiungi Commento


counter