* Dettagli Torrent   globale  | Commenti (0) 


- Viral (2016).H264.Italian.English.Ac3.5.1.sub.ita.iCV-MIRCrew -


Download via torrent:
Categoria bittorrent BDRip
Descrizione
Viral (2016).H264.Italian.English.Ac3.5.1.sub.ita.iCV-MIRCrew


[center]by www.icv-crew.org


NO FOUND ONLY ORIGINAL RELEASE



My release is always in double track audio italian and Original audio
for select it use VLC or dvd player home
not use wmp

Viral (2016)

[img]https://s19.postimg.org/m0c8modg3/image.pngg[/img]





Titolo originale:   Viral
Conosciuto anche come:   Peste
Nazione:   U.S.A.
Anno:   2016
Genere:   Drammatico, Horror, Fantascienza
Durata:   89'
Regia:   Henry Joost, Ariel Schulman
Sito ufficiale:  



Analeigh Tipton , Anna Ross , Brendon Eggertsen , Brianne Howey, Dean Neistat , John Cothran



A seguito di un'apocalittica epidemia causata da un virus che cancella la maggior parte della popolazione umana, una giovane donna documenta la nuova vita della sua famiglia in quarantena e cerca di proteggere la sorella infetta.................



Following the outbreak of a virus that wipes out the majority of the human population, a young woman documents her family's new life in quarantine and tries to protect her infected sister.
















[spoiler]
General
Unique ID                                : 119133636683027110033667540324555150519 (0x59A04DC79DE036861F13DAB99DFFD4B7)
Complete name                            : Viral (2016).H264.ita.eng.sub.ita.iCV-MIRCrew.mkv
Format                                   : Matroska
Format version                           : Version 2
File size                                : 1.31 GiB
Duration                                 : 1h 25mn
Overall bit rate                         : 2 189 Kbps
Movie name                               : www.icv-crew.org
Encoded date                             : UTC 2017-09-15 11:02:27
Writing application                      : Lavf54.63.100
Writing library                          : Lavf54.63.100
COPYRIGHT                                : robbyrs
DATE                                     : 2017

Video
ID                                       : 1
Format                                   : AVC
Format/Info                              : Advanced Video Codec
Format profile                           : [email protected]
Format settings, CABAC                   : Yes
Format settings, ReFrames                : 2 frames
Codec ID                                 : V_MPEG4/ISO/AVC
Duration                                 : 1h 25mn
Bit rate                                 : 1 300 Kbps
Width                                    : 720 pixels
Height                                   : 300 pixels
Display aspect ratio                     : 2.40:1
Frame rate mode                          : Variable
Frame rate                               : 24.000 fps
Color space                              : YUV
Chroma subsampling                       : 4:2:0
Bit depth                                : 8 bits
Scan type                                : Progressive
Bits/(Pixel*Frame)                       : 0.251
Stream size                              : 764 MiB (57%)
Writing library                          : x264 core 130 r2273
Encoding settings                        : cabac=1 / ref=2 / deblock=1:0:0 / analyse=0x1:0x131 / me=hex / subme=7 / psy=1 / psy_rd=1.00:0.00 / mixed_ref=0 / me_range=16 / chroma_me=1 / trellis=1 / 8x8dct=0 / cqm=0 / deadzone=21,11 / fast_pskip=1 / chroma_qp_offset=-2 / threads=12 / lookahead_threads=2 / sliced_threads=0 / nr=0 / decimate=1 / interlaced=0 / bluray_compat=0 / constrained_intra=0 / bframes=3 / b_pyramid=0 / b_adapt=1 / b_bias=0 / direct=3 / weightb=1 / open_gop=0 / weightp=2 / keyint=240 / keyint_min=24 / scenecut=40 / intra_refresh=0 / rc_lookahead=40 / rc=abr / mbtree=1 / bitrate=1300 / ratetol=1.0 / qcomp=0.60 / qpmin=10 / qpmax=69 / qpstep=4 / vbv_maxrate=24000 / vbv_bufsize=24000 / nal_hrd=none / ip_ratio=1.40 / aq=1:1.00
Language                                 : Italian
Default                                  : Yes
Forced                                   : No
DURATION                                 : 01:25:31.042000000
NUMBER_OF_FRAMES                         : 123145
NUMBER_OF_BYTES                          : 6645513636
_STATISTICS_WRITING_APP                  : mkvmerge v8.7.0 ('All of the above') 64bit
_STATISTICS_WRITING_DATE_UTC             : 2017-09-14 20:24:14
_STATISTICS_TAGS                         : BPS DURATION NUMBER_OF_FRAMES NUMBER_OF_BYTES

Audio #1
ID                                       : 2
Format                                   : AC-3
Format/Info                              : Audio Coding 3
Mode extension                           : CM (complete main)
Codec ID                                 : A_AC3
Duration                                 : 1h 25mn
Bit rate mode                            : Constant
Bit rate                                 : 448 Kbps
Channel(s)                               : 6 channels
Channel positions                        : Front: L C R, Side: L R, LFE
Sampling rate                            : 48.0 KHz
Bit depth                                : 16 bits
Compression mode                         : Lossy
Delay relative to video                  : 1mn 5s
Stream size                              : 274 MiB (20%)
Title                                    : AC3 ITA
Language                                 : Italian
Default                                  : No
Forced                                   : No
DURATION                                 : 01:25:30.080000000
NUMBER_OF_FRAMES                         : 160315
NUMBER_OF_BYTES                          : 410406400
_STATISTICS_WRITING_APP                  : mkvmerge v8.7.0 ('All of the above') 64bit
_STATISTICS_WRITING_DATE_UTC             : 2017-09-14 20:24:14
_STATISTICS_TAGS                         : BPS DURATION NUMBER_OF_FRAMES NUMBER_OF_BYTES

Audio #2
ID                                       : 3
Format                                   : AC-3
Format/Info                              : Audio Coding 3
Mode extension                           : CM (complete main)
Codec ID                                 : A_AC3
Duration                                 : 1h 25mn
Bit rate mode                            : Constant
Bit rate                                 : 448 Kbps
Channel(s)                               : 6 channels
Channel positions                        : Front: L C R, Side: L R, LFE
Sampling rate                            : 48.0 KHz
Bit depth                                : 16 bits
Compression mode                         : Lossy
Delay relative to video                  : 1mn 5s
Stream size                              : 274 MiB (20%)
Title                                    : AC3 ENG
Language                                 : English
Default                                  : No
Forced                                   : No
DURATION                                 : 01:25:30.080000000
NUMBER_OF_FRAMES                         : 160315
NUMBER_OF_BYTES                          : 410406400
_STATISTICS_WRITING_APP                  : mkvmerge v8.7.0 ('All of the above') 64bit
_STATISTICS_WRITING_DATE_UTC             : 2017-09-14 20:24:14
_STATISTICS_TAGS                         : BPS DURATION NUMBER_OF_FRAMES NUMBER_OF_BYTES

Text #1
ID                                       : 4
Format                                   : ASS
Codec ID                                 : S_TEXT/ASS
Codec ID/Info                            : Advanced Sub Station Alpha
Compression mode                         : Lossless
Title                                    : Forced
Language                                 : Italian
Default                                  : Yes
Forced                                   : No
DURATION                                 : 00:39:35.500000000
NUMBER_OF_FRAMES                         : 20
NUMBER_OF_BYTES                          : 773
_STATISTICS_WRITING_APP                  : mkvmerge v8.7.0 ('All of the above') 64bit
_STATISTICS_WRITING_DATE_UTC             : 2017-09-14 20:24:14
_STATISTICS_TAGS                         : BPS DURATION NUMBER_OF_FRAMES NUMBER_OF_BYTES

Text #2
ID                                       : 5
Format                                   : ASS
Codec ID                                 : S_TEXT/ASS
Codec ID/Info                            : Advanced Sub Station Alpha
Compression mode                         : Lossless
Title                                    : Regular
Language                                 : Italian
Default                                  : No
Forced                                   : No
DURATION                                 : 01:20:57.084000000
NUMBER_OF_FRAMES                         : 803
NUMBER_OF_BYTES                          : 27674
_STATISTICS_WRITING_APP                  : mkvmerge v8.7.0 ('All of the above') 64bit
_STATISTICS_WRITING_DATE_UTC             : 2017-09-14 20:24:14
_STATISTICS_TAGS                         : BPS DURATION NUMBER_OF_FRAMES NUMBER_OF_BYTES

Menu
00:00:00.000                             : :00:00:00.000
00:07:45.250                             : :00:07:45.250
00:14:37.083                             : :00:14:37.083
00:21:28.500                             : :00:21:28.500
00:28:25.500                             : :00:28:25.500
00:37:02.000                             : :00:37:02.000
00:42:29.375                             : :00:42:29.375
00:47:55.458                             : :00:47:55.458
00:57:22.500                             : :00:57:22.500
01:05:32.500                             : :01:05:32.500
01:11:22.000                             : :01:11:22.000
01:19:53.625                             : :01:19:53.625



[/spoiler]

[/center]

Info: Per scaricare devi usare un client come uTorrent o Transmission
AnnounceURL
udp://tracker.coppersurfer.tk:6969/announce
Hash 145c7d8f1673ebf0cc45efc94ef958ffdf03d2af
Peers seeds: 114 , leech: 22
Size 1.31 GB
Completato 2377x
Aggiunto 15.09.17 - 08:09:04
Uploader   robbyrs
Votazione (Voti: 2)


Condividi questo bittorrent:


html/blog:


bbcode/forum:




Aggiungi Commento


counter