* Dettagli Torrent   globale  | Commenti (0) 


- Ballerina (2016).H264.Italian.English.Ac3.5.1.sub.ita.eng.iCV-MIRCrew -


Download via torrent:
Categoria bittorrent BDRip
Descrizione
Leap! - Ballerina  (2016).H264.Italian.English.Ac3.5.1.sub.ita.eng.iCV-MIRCrew


[center]by www.icv-crew.org


NO FOUND ONLY ORIGINAL RELEASE



My release is always in double track audio italian and Original audio
for select it use VLC or dvd player home
not use wmp

Ballerina - Leap! (2016)







Lingua originale inglese
Paese di produzione Francia, Canada
Anno 2016
Durata 89 min
Genere animazione, musicale
Regia Eric Summer, Éric Warin
Sceneggiatura Carol Noble, Eric Summer, Laurent Zeitoun
Produttore Valérie d'Auteuil, Nicolas Duval Adassovsky, André Rouleau, Laurence Vacher, Laurent Zeitoun, Yann Zenou
Produttore esecutivo François-Xavier Aubague
Casa di produzione Gaumont, Quad Productions, Caramel Film, Main Journey
Distribuzione (Italia) Videa
Montaggio Yvann Thibaudeau
Musiche Klaus Badelt
Scenografia Jericca Cleland




   Elle Fanning: Félicie Le Bras
   Dane DeHaan: Victor
   Maddie Ziegler: Camille Le Haut
   Carly Rae Jepsen: Odette
   Julie Khaner: Régine Le Haut
   Terrence Scammell: Louis Mérante
   Tamir Kapelian: Rudolph
   Elana Dunckelman: Dora
   Shoshana Sperling: Nora
   Tamir Kapelian: Mathurin
   Pascal Casanova: Latureau
   Céline Melloul: Rosita Mauri
   Frederic Souterelle: Direttore dell'Opera
   Kathy Cerda: Madre Superiora
   Terrence Scammell: Postino

doppiatori italiani:


   Emanuela Ionica: Félicie Le Bras
   Alex Polidori: Victor
   Sara Labidi: Camille Le Haut
   Eleonora Abbagnato: Odette
   Sabrina Ferilli: Régine Le Haut
   Francesco Prando: Louis Mérante
   Federico Russo: Rudolph
   Vittoria Bartolomei: Dora
   Arianna Vignoli: Nora
   Gabriele Patriarca: Mathurin
   Franco Zucca: Latureau
   Giò Giò Rapattoni: Rosita Mauri
   Massimo De Ambrosis: Direttore dell'Opera
   Aurora Cancian: Madre Superiora
   Oliviero Dinelli: Postino





Félicie è una ragazzina di undici anni che sin da piccola ha sempre vissuto in uno orfanotrofio della Bretagna con il suo amico ...........



An orphan girl dreams of becoming a ballerina and flees her rural Brittany for Paris, where she passes for someone else and accedes to the position of pupil at the Grand Opera house.








[spoiler]
General
Unique ID                                : 936948140522601155730656806315753047 (0xB4731C21E7E7CD3D5546AAAA57FE57)
Complete name                            : Ballerina - Leap! (2016).H264.ita.eng.sub.eng.iCV-MIRCrew.mkv
Format                                   : Matroska
Format version                           : Version 2
File size                                : 1.29 GiB
Duration                                 : 1h 29mn
Overall bit rate                         : 2 070 Kbps
Movie name                               : www.icv-crew.org
Encoded date                             : UTC 2017-09-04 19:21:07
Writing application                      : Lavf54.63.100
Writing library                          : Lavf54.63.100
COPYRIGHT                                : robbyrs
DATE                                     : 2017

Video
ID                                       : 1
Format                                   : AVC
Format/Info                              : Advanced Video Codec
Format profile                           : [email protected]
Format settings, CABAC                   : Yes
Format settings, ReFrames                : 2 frames
Codec ID                                 : V_MPEG4/ISO/AVC
Duration                                 : 1h 29mn
Bit rate                                 : 1 290 Kbps
Width                                    : 720 pixels
Height                                   : 304 pixels
Display aspect ratio                     : 2.35:1
Original display aspect ratio            : 2.35:1
Frame rate mode                          : Variable
Frame rate                               : 24.000 fps
Color space                              : YUV
Chroma subsampling                       : 4:2:0
Bit depth                                : 8 bits
Scan type                                : Progressive
Bits/(Pixel*Frame)                       : 0.246
Stream size                              : 803 MiB (61%)
Writing library                          : x264 core 130 r2273
Encoding settings                        : cabac=1 / ref=2 / deblock=1:0:0 / analyse=0x1:0x131 / me=hex / subme=7 / psy=1 / psy_rd=1.00:0.00 / mixed_ref=0 / me_range=16 / chroma_me=1 / trellis=1 / 8x8dct=0 / cqm=0 / deadzone=21,11 / fast_pskip=1 / chroma_qp_offset=-2 / threads=12 / lookahead_threads=2 / sliced_threads=0 / nr=0 / decimate=1 / interlaced=0 / bluray_compat=0 / constrained_intra=0 / bframes=3 / b_pyramid=0 / b_adapt=1 / b_bias=0 / direct=3 / weightb=1 / open_gop=0 / weightp=2 / keyint=240 / keyint_min=24 / scenecut=40 / intra_refresh=0 / rc_lookahead=40 / rc=abr / mbtree=1 / bitrate=1290 / ratetol=1.0 / qcomp=0.60 / qpmin=10 / qpmax=69 / qpstep=4 / vbv_maxrate=24000 / vbv_bufsize=24000 / nal_hrd=none / ip_ratio=1.40 / aq=1:1.00
Language                                 : Italian
Default                                  : Yes
Forced                                   : No
DURATION                                 : 01:29:06.625000000
NUMBER_OF_FRAMES                         : 128319
NUMBER_OF_BYTES                          : 6032266111
_STATISTICS_WRITING_APP                  : mkvmerge v15.0.0 ('Duel with the Devil') 64-bit
_STATISTICS_WRITING_DATE_UTC             : 2017-09-03 18:06:25
_STATISTICS_TAGS                         : BPS DURATION NUMBER_OF_FRAMES NUMBER_OF_BYTES

Audio #1
ID                                       : 2
Format                                   : AC-3
Format/Info                              : Audio Coding 3
Mode extension                           : CM (complete main)
Codec ID                                 : A_AC3
Duration                                 : 1h 29mn
Bit rate mode                            : Constant
Bit rate                                 : 384 Kbps
Channel(s)                               : 6 channels
Channel positions                        : Front: L C R, Side: L R, LFE
Sampling rate                            : 48.0 KHz
Bit depth                                : 16 bits
Compression mode                         : Lossy
Delay relative to video                  : 1mn 5s
Stream size                              : 245 MiB (19%)
Title                                    : ITA
Language                                 : Italian
Default                                  : Yes
Forced                                   : No
DURATION                                 : 01:29:06.656000000
NUMBER_OF_FRAMES                         : 167083
NUMBER_OF_BYTES                          : 256639488
_STATISTICS_WRITING_APP                  : mkvmerge v15.0.0 ('Duel with the Devil') 64-bit
_STATISTICS_WRITING_DATE_UTC             : 2017-09-03 18:06:25
_STATISTICS_TAGS                         : BPS DURATION NUMBER_OF_FRAMES NUMBER_OF_BYTES

Audio #2
ID                                       : 3
Format                                   : AC-3
Format/Info                              : Audio Coding 3
Mode extension                           : CM (complete main)
Codec ID                                 : A_AC3
Duration                                 : 1h 29mn
Bit rate mode                            : Constant
Bit rate                                 : 384 Kbps
Channel(s)                               : 6 channels
Channel positions                        : Front: L C R, Side: L R, LFE
Sampling rate                            : 48.0 KHz
Bit depth                                : 16 bits
Compression mode                         : Lossy
Delay relative to video                  : 1mn 5s
Stream size                              : 245 MiB (19%)
Language                                 : English
Default                                  : No
Forced                                   : No
DURATION                                 : 01:29:06.593000000
NUMBER_OF_FRAMES                         : 501243
NUMBER_OF_BYTES                          : 1008500916
_STATISTICS_WRITING_APP                  : mkvmerge v15.0.0 ('Duel with the Devil') 64-bit
_STATISTICS_WRITING_DATE_UTC             : 2017-09-03 18:06:25
_STATISTICS_TAGS                         : BPS DURATION NUMBER_OF_FRAMES NUMBER_OF_BYTES

Text #1
ID                                       : 4
Format                                   : ASS
Codec ID                                 : S_TEXT/ASS
Codec ID/Info                            : Advanced Sub Station Alpha
Compression mode                         : Lossless
Language                                 : English
Default                                  : No
Forced                                   : No
DURATION                                 : 01:27:45.958000000
NUMBER_OF_FRAMES                         : 1331
NUMBER_OF_BYTES                          : 37801
_STATISTICS_WRITING_APP                  : mkvmerge v15.0.0 ('Duel with the Devil') 64-bit
_STATISTICS_WRITING_DATE_UTC             : 2017-09-03 18:06:25
_STATISTICS_TAGS                         : BPS DURATION NUMBER_OF_FRAMES NUMBER_OF_BYTES

Text #2
ID                                       : 5
Format                                   : ASS
Codec ID                                 : S_TEXT/ASS
Codec ID/Info                            : Advanced Sub Station Alpha
Compression mode                         : Lossless
Title                                    : SDH
Language                                 : English
Default                                  : No
Forced                                   : No
DURATION                                 : 01:28:03.584000000
NUMBER_OF_FRAMES                         : 1562
NUMBER_OF_BYTES                          : 43291
_STATISTICS_WRITING_APP                  : mkvmerge v15.0.0 ('Duel with the Devil') 64-bit
_STATISTICS_WRITING_DATE_UTC             : 2017-09-03 18:06:25
_STATISTICS_TAGS                         : BPS DURATION NUMBER_OF_FRAMES NUMBER_OF_BYTES

Menu
00:00:00.000                             : :00:00:00.000
00:04:54.000                             : :00:04:54.000
00:10:58.292                             : :00:10:58.292
00:13:54.125                             : :00:13:54.125
00:18:00.875                             : :00:18:00.875
00:23:18.750                             : :00:23:18.750
00:28:03.542                             : :00:28:03.542
00:32:55.000                             : :00:32:55.000
00:36:14.458                             : :00:36:14.458
00:41:19.833                             : :00:41:19.833
00:44:54.708                             : :00:44:54.708
00:50:25.000                             : :00:50:25.000
00:56:41.792                             : :00:56:41.792
01:02:39.458                             : :01:02:39.458
01:08:48.750                             : :01:08:48.750
01:13:12.667                             : :01:13:12.667
01:17:43.958                             : :01:17:43.958
01:22:49.917                             : :01:22:49.917



[/spoiler]

[/center]

Info: Per scaricare devi usare un client come uTorrent o Transmission
AnnounceURL
udp://tracker.coppersurfer.tk:6969/announce
Hash 822c5e1ad6957e244f4cbfaee04514e2db3647e7
Peers seeds: 181 , leech: 40
Size 1.29 GB
Completato 2989x
Aggiunto 14.09.17 - 10:09:21
Uploader   robbyrs
Votazione (Voti: 1)


Condividi questo bittorrent:


html/blog:


bbcode/forum:




Aggiungi Commento


counter