* Dettagli Torrent   globale  | Commenti (0) 


- Güeros (2014).H264.Italian.Spanish.Ac3.5.1.sub.ita.iCV-MIRCrew -


Download via torrent:
Categoria bittorrent BDRip
Descrizione
Güeros (2014).H264.Italian.Spanish.Ac3.5.1.sub.ita.iCV-MIRCrew

[center]
www.icv-crew.org


NO FOUND ONLY ORIGINAL RELEASE



My release is always in double track audio italian and Original audio
for select it use VLC or dvd player home
not use wmp

Güeros (2014)








   DATA USCITA: 23 giugno 2016
   GENERE: Commedia
   ANNO: 2014
   REGIA: Alonso Ruizpalacios
   
   PAESE: Messico
   DURATA: 106 Min
   DISTRIBUZIONE: Bunker Hill




Tenoch Huerta, Sebastián Aguirre, Ilse Salas, Leonardo Ortizgris



Città del Messico, 1999. Dopo aver scoperto che il suo cantante preferito è in fin di vita, l'irrequieto adolescente Tomàs convince il malinconico fratello Federico a raggiungere l'ospedale per rendere un ultimo omaggio all'artista. Accompagnati dall'amico Santos, i due fratelli arrivano a destinazione e scoprono che il loro idolo d'infanzia è scomparso...................



Tomas is too much for his lone mother so she sends him to live with his older brother Federico, aka Sombra, in Mexico City.











[spoiler]
General
Unique ID                                : 176346212197199878276831762250629910587 (0x84AB0B8960FDFEE666DD61C5DDF0103B)
Complete name                            : Güeros (2014).H264.ita.spa.sub.ita.iCV-MIRCrew\Güeros (2014).H264.ita.spa.sub.ita.iCV-MIRCrew.mkv
Format                                   : Matroska
Format version                           : Version 2
File size                                : 1.25 GiB
Duration                                 : 1h 46mn
Overall bit rate                         : 1 673 Kbps
Encoded date                             : UTC 2017-09-08T14:44:30Z
Writing application                      : HandBrake 0.10.5 2016021100
Writing library                          : Lavf55.12.0

Video
ID                                       : 1
Format                                   : AVC
Format/Info                              : Advanced Video Codec
Format profile                           : [email protected]
Format settings, CABAC                   : Yes
Format settings, ReFrames                : 4 frames
Codec ID                                 : V_MPEG4/ISO/AVC
Duration                                 : 1h 46mn
Bit rate                                 : 1 290 Kbps
Width                                    : 688 pixels
Height                                   : 516 pixels
Display aspect ratio                     : 4:3
Frame rate mode                          : Variable
Frame rate                               : 25.000 fps
Color space                              : YUV
Chroma subsampling                       : 4:2:0
Bit depth                                : 8 bits
Scan type                                : Progressive
Bits/(Pixel*Frame)                       : 0.145
Stream size                              : 960 MiB (75%)
Writing library                          : x264 core 142 r2479 dd79a61
Encoding settings                        : cabac=1 / ref=1 / deblock=1:-1:-1 / analyse=0x1:0x111 / me=hex / subme=2 / psy=1 / psy_rd=1.00:0.15 / mixed_ref=0 / me_range=16 / chroma_me=1 / trellis=0 / 8x8dct=0 / cqm=0 / deadzone=21,11 / fast_pskip=1 / chroma_qp_offset=0 / threads=12 / lookahead_threads=4 / sliced_threads=0 / nr=0 / decimate=1 / interlaced=0 / bluray_compat=0 / constrained_intra=0 / bframes=3 / b_pyramid=2 / b_adapt=1 / b_bias=0 / direct=1 / weightb=1 / open_gop=0 / weightp=1 / keyint=250 / keyint_min=25 / scenecut=40 / intra_refresh=0 / rc_lookahead=10 / rc=abr / mbtree=1 / bitrate=1290 / ratetol=1.0 / qcomp=0.60 / qpmin=0 / qpmax=69 / qpstep=4 / vbv_maxrate=20000 / vbv_bufsize=25000 / nal_hrd=none / filler=0 / ip_ratio=1.40 / aq=1:1.00
Default                                  : Yes
Forced                                   : No
Color primaries                          : BT.470-6 System B, BT.470-6 System G, BT.601-6 625, BT.1358 625, BT.1700 625 PAL, BT.1700 625 SECAM
Transfer characteristics                 : BT.709-5, BT.1361
Matrix coefficients                      : BT.601-6 525, BT.1358 525, BT.1700 NTSC, SMPTE 170M

Audio #1
ID                                       : 2
Format                                   : AC-3
Format/Info                              : Audio Coding 3
Mode extension                           : CM (complete main)
Codec ID                                 : A_AC3
Duration                                 : 1h 46mn
Bit rate mode                            : Constant
Bit rate                                 : 192 Kbps
Channel(s)                               : 2 channels
Channel positions                        : Front: L R
Sampling rate                            : 48.0 KHz
Bit depth                                : 16 bits
Compression mode                         : Lossy
Delay relative to video                  : 1mn 5s
Stream size                              : 147 MiB (11%)
Title                                    : Stereo
Language                                 : Italian
Default                                  : Yes
Forced                                   : No

Audio #2
ID                                       : 3
Format                                   : AC-3
Format/Info                              : Audio Coding 3
Mode extension                           : CM (complete main)
Codec ID                                 : A_AC3
Duration                                 : 1h 46mn
Bit rate mode                            : Constant
Bit rate                                 : 192 Kbps
Channel(s)                               : 2 channels
Channel positions                        : Front: L R
Sampling rate                            : 48.0 KHz
Bit depth                                : 16 bits
Compression mode                         : Lossy
Delay relative to video                  : 1mn 5s
Stream size                              : 147 MiB (11%)
Title                                    : Stereo
Language                                 : Spanish
Default                                  : No
Forced                                   : No

Text #1
ID                                       : 4
Format                                   : VobSub
Codec ID                                 : S_VOBSUB
Codec ID/Info                            : The same subtitle format used on DVDs
Language                                 : Italian
Default                                  : No
Forced                                   : No

Text #2
ID                                       : 5
Format                                   : VobSub
Codec ID                                 : S_VOBSUB
Codec ID/Info                            : The same subtitle format used on DVDs
Language                                 : Italian
Default                                  : No
Forced                                   : No

Text #3
ID                                       : 6
Format                                   : VobSub
Codec ID                                 : S_VOBSUB
Codec ID/Info                            : The same subtitle format used on DVDs
Language                                 : Italian
Default                                  : No
Forced                                   : No

Menu
00:00:00.000                             : :Chapter 1
00:09:03.400                             : :Chapter 2
00:17:05.480                             : :Chapter 3
00:25:59.960                             : :Chapter 4
00:34:53.400                             : :Chapter 5
00:45:47.840                             : :Chapter 6
00:56:46.360                             : :Chapter 7
01:05:13.760                             : :Chapter 8
01:13:14.760                             : :Chapter 9
01:22:33.480                             : :Chapter 10
01:31:35.360                             : :Chapter 11
01:40:42.920                             : :Chapter 12


[/spoiler]

[/center]

Info: Per scaricare devi usare un client come uTorrent o Transmission
AnnounceURL
udp://tracker.coppersurfer.tk:6969/announce
Hash c1529253dc349dff1a5c4114b05bccc2a674d1fa
Peers seeds: 32 , leech: 3
Size 1.26 GB
Completato 540x
Aggiunto 14.09.17 - 10:09:27
Uploader   robbyrs
Votazione (Voti: 0)


Condividi questo bittorrent:


html/blog:


bbcode/forum:




Aggiungi Commento


counter