* Dettagli Torrent   globale  | Commenti (0) 


- La valle delle Bambole (1967).H264.Italian.English.Ac3.sub.ita.iCV-MIRCrew -


Download via torrent:
Categoria bittorrent BDRip
Descrizione
Valley of the Dolls - La valle delle Bambole (1967).H264.Italian.English.Ac3.sub.ita.iCV-MIRCrew


[center]by www.icv-crew.org


NO FOUND ONLY ORIGINAL RELEASE



My release is always in double track audio italian and Original audio
for select it use VLC or dvd player home
not use wmp

La valle delle Bambole - Valley of the Dolls (1967)







Titolo originale Valley of the Dolls
Paese di produzione USA
Anno 1967
Durata 123 min
Genere drammatico
Regia Mark Robson
Soggetto Jacqueline Susann
Sceneggiatura Helen Deutsch e Dorothy Kingsley
Fotografia William H. Daniels
Montaggio Dorothy Spencer
Musiche John Williams




   Barbara Parkins: Anne Welles
   Patty Duke: Neely O'Hara
   Paul Burke: Lyon Burke
   Sharon Tate: Jennifer North
   Tony Scotti: Tony Polar
   Martin Milner: Mel Anderson
   Charles Drake: Kevin Gillmore
   Alexander Davion: Ted Casablanca
   Lee Grant: Miriam
   Naomi Stevens: Miss Steinberg
   Robert H. Harris: Henry Bellamy
   Jacqueline Susann: Primo giornalista
   Robert Viharo: Direttore
   Joey Bishop: MC at Telethon
   George Jessel: MC Grammy Awards
   Susan Hayward: Helen Lawson




La storia racconta delle avventure di 3 ragazze, Anne, Jennifer e Neely, giunte a New York. Tutte e tre riescono a far fortuna: Neely recita nei "musical" di Broadway, Anne lavora nel settore della pubblicità e Jennifer riesce a sposare un attore-cantante famoso. Ma il successo e la ricchezza sono dannosi per loro e,.................



Anne Welles, a bright, brash young New England college grad leaves her Peyton Place-ish small town and heads for Broadway, where she hopes to find an exciting job and sophisticated men. During her misadventures in Manhattan and, later, Hollywood, she shares experiences with two other young hopefuls..................










[spoiler]
General
Unique ID                                : 147299851961957786297503875179064142731 (0x6ED0EB68EC0E897A9CA3A54782852B8B)
Complete name                            : La valle delle Bambole - Valley of the Dolls (1967).H264.ita.eng.multisub.iCV-MIRCrew.mkv
Format                                   : Matroska
Format version                           : Version 2
File size                                : 1.41 GiB
Duration                                 : 1h 58mn
Overall bit rate                         : 1 711 Kbps
Encoded date                             : UTC 2017-09-13T16:19:16Z
Writing application                      : HandBrake 0.10.5 2016021100
Writing library                          : Lavf55.12.0

Video
ID                                       : 1
Format                                   : AVC
Format/Info                              : Advanced Video Codec
Format profile                           : [email protected]
Format settings, CABAC                   : Yes
Format settings, ReFrames                : 4 frames
Codec ID                                 : V_MPEG4/ISO/AVC
Duration                                 : 1h 58mn
Bit rate                                 : 1 290 Kbps
Width                                    : 688 pixels
Height                                   : 300 pixels
Display aspect ratio                     : 2.25:1
Frame rate mode                          : Variable / Variable
Frame rate                               : 25.000 fps
Color space                              : YUV
Chroma subsampling                       : 4:2:0
Bit depth                                : 8 bits
Scan type                                : Progressive
Bits/(Pixel*Frame)                       : 0.250
Stream size                              : 1.07 GiB (76%)
Writing library                          : x264 core 142 r2479 dd79a61
Encoding settings                        : cabac=1 / ref=1 / deblock=1:-1:-1 / analyse=0x1:0x111 / me=hex / subme=2 / psy=1 / psy_rd=1.00:0.15 / mixed_ref=0 / me_range=16 / chroma_me=1 / trellis=0 / 8x8dct=0 / cqm=0 / deadzone=21,11 / fast_pskip=1 / chroma_qp_offset=0 / threads=12 / lookahead_threads=2 / sliced_threads=0 / nr=0 / decimate=1 / interlaced=0 / bluray_compat=0 / constrained_intra=0 / bframes=3 / b_pyramid=2 / b_adapt=1 / b_bias=0 / direct=1 / weightb=1 / open_gop=0 / weightp=1 / keyint=250 / keyint_min=25 / scenecut=40 / intra_refresh=0 / rc_lookahead=10 / rc=abr / mbtree=1 / bitrate=1290 / ratetol=1.0 / qcomp=0.60 / qpmin=0 / qpmax=69 / qpstep=4 / vbv_maxrate=20000 / vbv_bufsize=25000 / nal_hrd=none / filler=0 / ip_ratio=1.40 / aq=1:1.00
Default                                  : Yes
Forced                                   : No
Color primaries                          : BT.470-6 System B, BT.470-6 System G, BT.601-6 625, BT.1358 625, BT.1700 625 PAL, BT.1700 625 SECAM
Transfer characteristics                 : BT.709-5, BT.1361
Matrix coefficients                      : BT.601-6 525, BT.1358 525, BT.1700 NTSC, SMPTE 170M

Audio #1
ID                                       : 2
Format                                   : AC-3
Format/Info                              : Audio Coding 3
Mode extension                           : CM (complete main)
Codec ID                                 : A_AC3
Duration                                 : 1h 58mn
Bit rate mode                            : Constant
Bit rate                                 : 192 Kbps
Channel(s)                               : 2 channels
Channel positions                        : Front: L R
Sampling rate                            : 48.0 KHz
Bit depth                                : 16 bits
Compression mode                         : Lossy
Delay relative to video                  : 1mn 5s
Stream size                              : 162 MiB (11%)
Title                                    : Stereo
Language                                 : Italian
Default                                  : Yes
Forced                                   : No

Audio #2
ID                                       : 3
Format                                   : AC-3
Format/Info                              : Audio Coding 3
Mode extension                           : CM (complete main)
Codec ID                                 : A_AC3
Duration                                 : 1h 58mn
Bit rate mode                            : Constant
Bit rate                                 : 192 Kbps
Channel(s)                               : 2 channels
Channel positions                        : Front: L R
Sampling rate                            : 48.0 KHz
Bit depth                                : 16 bits
Compression mode                         : Lossy
Delay relative to video                  : 1mn 5s
Stream size                              : 162 MiB (11%)
Title                                    : Stereo
Language                                 : English
Default                                  : No
Forced                                   : No

Text #1
ID                                       : 4
Format                                   : VobSub
Codec ID                                 : S_VOBSUB
Codec ID/Info                            : The same subtitle format used on DVDs
Language                                 : Italian
Default                                  : No
Forced                                   : No

Text #2
ID                                       : 5
Format                                   : VobSub
Codec ID                                 : S_VOBSUB
Codec ID/Info                            : The same subtitle format used on DVDs
Language                                 : Dutch
Default                                  : No
Forced                                   : No

Text #3
ID                                       : 6
Format                                   : VobSub
Codec ID                                 : S_VOBSUB
Codec ID/Info                            : The same subtitle format used on DVDs
Language                                 : English
Default                                  : No
Forced                                   : No

Text #4
ID                                       : 7
Format                                   : VobSub
Codec ID                                 : S_VOBSUB
Codec ID/Info                            : The same subtitle format used on DVDs
Language                                 : French
Default                                  : No
Forced                                   : No

Text #5
ID                                       : 8
Format                                   : VobSub
Codec ID                                 : S_VOBSUB
Codec ID/Info                            : The same subtitle format used on DVDs
Language                                 : German
Default                                  : No
Forced                                   : No

Text #6
ID                                       : 9
Format                                   : VobSub
Codec ID                                 : S_VOBSUB
Codec ID/Info                            : The same subtitle format used on DVDs
Language                                 : Italian
Default                                  : No
Forced                                   : No

Text #7
ID                                       : 10
Format                                   : VobSub
Codec ID                                 : S_VOBSUB
Codec ID/Info                            : The same subtitle format used on DVDs
Language                                 : Spanish
Default                                  : No
Forced                                   : No

Text #8
ID                                       : 11
Format                                   : VobSub
Codec ID                                 : S_VOBSUB
Codec ID/Info                            : The same subtitle format used on DVDs
Language                                 : Swedish
Default                                  : No
Forced                                   : No

Text #9
ID                                       : 12
Format                                   : VobSub
Codec ID                                 : S_VOBSUB
Codec ID/Info                            : The same subtitle format used on DVDs
Language                                 : German
Default                                  : No
Forced                                   : No

Text #10
ID                                       : 13
Format                                   : VobSub
Codec ID                                 : S_VOBSUB
Codec ID/Info                            : The same subtitle format used on DVDs
Language                                 : Spanish
Default                                  : No
Forced                                   : No

Menu
00:00:00.000                             : :Chapter 1
00:04:54.960                             : :Chapter 2
00:13:39.760                             : :Chapter 3
00:28:51.440                             : :Chapter 4
00:34:04.400                             : :Chapter 5
00:39:42.760                             : :Chapter 6
00:44:50.240                             : :Chapter 7
00:53:18.280                             : :Chapter 8
00:57:54.440                             : :Chapter 9
01:03:11.880                             : :Chapter 10
01:10:37.692                             : :Chapter 11
01:22:08.452                             : :Chapter 12
01:33:06.492                             : :Chapter 13
01:40:43.892                             : :Chapter 14
01:46:36.292                             : :Chapter 15
01:55:22.932                             : :Chapter 16


[/spoiler]

[/center]

Info: Per scaricare devi usare un client come uTorrent o Transmission
AnnounceURL
udp://tracker.coppersurfer.tk:6969/announce
Hash 8c44b05a69e79566f88606d645a5fa99fe4e8151
Peers seeds: 8 , leech: 2
Size 1.44 GB
Completato 187x
Aggiunto 14.09.17 - 09:09:10
Uploader   robbyrs
Votazione (Voti: 1)


Condividi questo bittorrent:


html/blog:


bbcode/forum:




Aggiungi Commento


counter