* Dettagli Torrent   globale  | Commenti (2) 


- Love (2015).H264.Italian.English.Ac3.5.1.multisub.iCV-MIRCrew -


Download via torrent:
Categoria bittorrent BDRip
Descrizione
Love (2015).H264.Italian.English.Ac3.5.1.multisub.iCV-MIRCrew


[center]by www.icv-crew.org


NO FOUND ONLY ORIGINAL RELEASE



My release is always in double track audio italian and Original audio
for select it use VLC or dvd player home
not use wmp

Love (2015)







Titolo originale Love
Lingua originale inglese
Paese di produzione Francia
Anno 2015
Durata 135 min
Genere erotico, drammatico
Regia Gaspar Noé
Sceneggiatura Gaspar Noé
Produttore Vincent Maraval, Brahim Chioua, Gaspar Noé, Rodrigo Teixeira, Edouard Weil
Casa di produzione Wild Bunch, Les Cinemas de la Zone, RT Features, Rectangle Productions
Fotografia Benoît Debie
Montaggio Gaspar Noé, Denis Bedlow
Musiche Pascal Mayer
Costumi Emmanuelle Pastre




   Aomi Muyock: Electra
   Karl Glusman: Murphy
   Klara Kristin: Omi
   Benoît Debie: Yuyo
   Ugo Fox: Gaspar
   Juan Saavedra: Julio




Il film è incentrato sulla vita del giovane Murphy, uno studente di una scuola di cinema, e della sua ex-fidanzata Electra (che ha frequentato per due anni prima di tradirla con un'altra ragazza chiamata Omi, rimasta incinta dello stesso Murphy). La gravidanza inaspettata di Omi pone fine al fidanzamento di Electra e dello studente................



Murphy is an American living in Paris who enters a highly sexually and emotionally charged relationship with the unstable Electra. Unaware of the effect it will have on their relationship, they invite their pretty neighbor into their bed.  








[spoiler]
General
Unique ID                                : 210442065343499568902556319099299641660 (0x9E51AAE29D803FED8EFB14F59FDD393C)
Complete name                            : Love (2015)H264.ita.eng.multisub.iCV-MIRCrew\Love (2015)H264.ita.eng.multisub.iCV-MIRCrew.mkv
Format                                   : Matroska
Format version                           : Version 2
File size                                : 1.84 GiB
Duration                                 : 2h 9mn
Overall bit rate                         : 2 035 Kbps
Movie name                               : www.icv-crew.org
Encoded date                             : UTC 2017-09-08 17:15:05
Writing application                      : Lavf54.63.100
Writing library                          : Lavf54.63.100
COPYRIGHT                                : robbyrs
DATE                                     : 2017

Video
ID                                       : 1
Format                                   : AVC
Format/Info                              : Advanced Video Codec
Format profile                           : [email protected]
Format settings, CABAC                   : Yes
Format settings, ReFrames                : 2 frames
Codec ID                                 : V_MPEG4/ISO/AVC
Duration                                 : 2h 9mn
Bit rate                                 : 1 227 Kbps
Nominal bit rate                         : 1 290 Kbps
Width                                    : 720 pixels
Height                                   : 304 pixels
Display aspect ratio                     : 2.40:1
Frame rate mode                          : Variable
Frame rate                               : 25.000 fps
Color space                              : YUV
Chroma subsampling                       : 4:2:0
Bit depth                                : 8 bits
Scan type                                : Progressive
Bits/(Pixel*Frame)                       : 0.224
Stream size                              : 1.11 GiB (60%)
Writing library                          : x264 core 130 r2273
Encoding settings                        : cabac=1 / ref=2 / deblock=1:0:0 / analyse=0x1:0x131 / me=hex / subme=7 / psy=1 / psy_rd=1.00:0.00 / mixed_ref=0 / me_range=16 / chroma_me=1 / trellis=1 / 8x8dct=0 / cqm=0 / deadzone=21,11 / fast_pskip=1 / chroma_qp_offset=-2 / threads=12 / lookahead_threads=2 / sliced_threads=0 / nr=0 / decimate=1 / interlaced=0 / bluray_compat=0 / constrained_intra=0 / bframes=3 / b_pyramid=0 / b_adapt=1 / b_bias=0 / direct=3 / weightb=1 / open_gop=0 / weightp=2 / keyint=250 / keyint_min=25 / scenecut=40 / intra_refresh=0 / rc_lookahead=40 / rc=abr / mbtree=1 / bitrate=1290 / ratetol=1.0 / qcomp=0.60 / qpmin=10 / qpmax=69 / qpstep=4 / vbv_maxrate=24000 / vbv_bufsize=24000 / nal_hrd=none / ip_ratio=1.40 / aq=1:1.00
Language                                 : Italian
Default                                  : Yes
Forced                                   : No
DURATION                                 : 02:09:22.960000000
NUMBER_OF_FRAMES                         : 194074
NUMBER_OF_BYTES                          : 7920094615
_STATISTICS_WRITING_APP                  : mkvmerge v7.6.0 ('Garden of Dreams') 64bit built on Feb  8 2015 15:12:28
_STATISTICS_WRITING_DATE_UTC             : 2017-09-03 09:31:07
_STATISTICS_TAGS                         : BPS DURATION NUMBER_OF_FRAMES NUMBER_OF_BYTES

Audio #1
ID                                       : 2
Format                                   : AC-3
Format/Info                              : Audio Coding 3
Mode extension                           : CM (complete main)
Codec ID                                 : A_AC3
Duration                                 : 2h 9mn
Bit rate mode                            : Constant
Bit rate                                 : 384 Kbps
Channel(s)                               : 6 channels
Channel positions                        : Front: L C R, Side: L R, LFE
Sampling rate                            : 48.0 KHz
Bit depth                                : 16 bits
Compression mode                         : Lossy
Delay relative to video                  : 1mn 5s
Stream size                              : 355 MiB (19%)
Title                                    : ITA
Language                                 : Italian
Default                                  : Yes
Forced                                   : Yes
DURATION                                 : 02:09:22.944000000
NUMBER_OF_FRAMES                         : 242592
NUMBER_OF_BYTES                          : 372621312
_STATISTICS_WRITING_APP                  : mkvmerge v7.6.0 ('Garden of Dreams') 64bit built on Feb  8 2015 15:12:28
_STATISTICS_WRITING_DATE_UTC             : 2017-09-03 09:31:07
_STATISTICS_TAGS                         : BPS DURATION NUMBER_OF_FRAMES NUMBER_OF_BYTES

Audio #2
ID                                       : 3
Format                                   : AC-3
Format/Info                              : Audio Coding 3
Mode extension                           : CM (complete main)
Codec ID                                 : A_AC3
Duration                                 : 2h 9mn
Bit rate mode                            : Constant
Bit rate                                 : 384 Kbps
Channel(s)                               : 6 channels
Channel positions                        : Front: L C R, Side: L R, LFE
Sampling rate                            : 48.0 KHz
Bit depth                                : 16 bits
Compression mode                         : Lossy
Delay relative to video                  : 1mn 5s
Stream size                              : 355 MiB (19%)
Title                                    : ENG
Language                                 : English
Default                                  : No
Forced                                   : No
DURATION                                 : 02:09:22.944000000
NUMBER_OF_FRAMES                         : 242592
NUMBER_OF_BYTES                          : 621035520
_STATISTICS_WRITING_APP                  : mkvmerge v7.6.0 ('Garden of Dreams') 64bit built on Feb  8 2015 15:12:28
_STATISTICS_WRITING_DATE_UTC             : 2017-09-03 09:31:07
_STATISTICS_TAGS                         : BPS DURATION NUMBER_OF_FRAMES NUMBER_OF_BYTES

Text #1
ID                                       : 4
Format                                   : ASS
Codec ID                                 : S_TEXT/ASS
Codec ID/Info                            : Advanced Sub Station Alpha
Compression mode                         : Lossless
Title                                    : ITA - Forced
Language                                 : Italian
Default                                  : Yes
Forced                                   : Yes
DURATION                                 : 00:00:07.680000000
NUMBER_OF_FRAMES                         : 1
NUMBER_OF_BYTES                          : 62
_STATISTICS_WRITING_APP                  : mkvmerge v7.6.0 ('Garden of Dreams') 64bit built on Feb  8 2015 15:12:28
_STATISTICS_WRITING_DATE_UTC             : 2017-09-03 09:31:07
_STATISTICS_TAGS                         : BPS DURATION NUMBER_OF_FRAMES NUMBER_OF_BYTES

Text #2
ID                                       : 5
Format                                   : ASS
Codec ID                                 : S_TEXT/ASS
Codec ID/Info                            : Advanced Sub Station Alpha
Compression mode                         : Lossless
Language                                 : Italian
Default                                  : No
Forced                                   : No
DURATION                                 : 02:02:36.080000000
NUMBER_OF_FRAMES                         : 1123
NUMBER_OF_BYTES                          : 35841
_STATISTICS_WRITING_APP                  : mkvmerge v7.6.0 ('Garden of Dreams') 64bit built on Feb  8 2015 15:12:28
_STATISTICS_WRITING_DATE_UTC             : 2017-09-03 09:31:07
_STATISTICS_TAGS                         : BPS DURATION NUMBER_OF_FRAMES NUMBER_OF_BYTES

Text #3
ID                                       : 6
Format                                   : ASS
Codec ID                                 : S_TEXT/ASS
Codec ID/Info                            : Advanced Sub Station Alpha
Compression mode                         : Lossless
Language                                 : English
Default                                  : No
Forced                                   : No
DURATION                                 : 02:03:25.931000000
NUMBER_OF_FRAMES                         : 1170
NUMBER_OF_BYTES                          : 34458
_STATISTICS_WRITING_APP                  : mkvmerge v7.6.0 ('Garden of Dreams') 64bit built on Feb  8 2015 15:12:28
_STATISTICS_WRITING_DATE_UTC             : 2017-09-03 09:31:07
_STATISTICS_TAGS                         : BPS DURATION NUMBER_OF_FRAMES NUMBER_OF_BYTES

Text #4
ID                                       : 7
Format                                   : ASS
Codec ID                                 : S_TEXT/ASS
Codec ID/Info                            : Advanced Sub Station Alpha
Compression mode                         : Lossless
Language                                 : French
Default                                  : No
Forced                                   : No
DURATION                                 : 02:02:36.039000000
NUMBER_OF_FRAMES                         : 1290
NUMBER_OF_BYTES                          : 28241
_STATISTICS_WRITING_APP                  : mkvmerge v7.6.0 ('Garden of Dreams') 64bit built on Feb  8 2015 15:12:28
_STATISTICS_WRITING_DATE_UTC             : 2017-09-03 09:31:07
_STATISTICS_TAGS                         : BPS DURATION NUMBER_OF_FRAMES NUMBER_OF_BYTES

Text #5
ID                                       : 8
Format                                   : ASS
Codec ID                                 : S_TEXT/ASS
Codec ID/Info                            : Advanced Sub Station Alpha
Compression mode                         : Lossless
Language                                 : Spanish
Default                                  : No
Forced                                   : No
DURATION                                 : 02:03:25.998000000
NUMBER_OF_FRAMES                         : 1170
NUMBER_OF_BYTES                          : 37003
_STATISTICS_WRITING_APP                  : mkvmerge v7.6.0 ('Garden of Dreams') 64bit built on Feb  8 2015 15:12:28
_STATISTICS_WRITING_DATE_UTC             : 2017-09-03 09:31:07
_STATISTICS_TAGS                         : BPS DURATION NUMBER_OF_FRAMES NUMBER_OF_BYTES

Menu
00:00:00.000                             : :00:00:00.000
00:07:37.000                             : :00:07:37.000
00:23:08.640                             : :00:23:08.640
00:46:10.240                             : :00:46:10.240
01:09:00.640                             : :01:09:00.640
01:29:58.040                             : :01:29:58.040
01:48:43.720                             : :01:48:43.720
02:04:42.160                             : :02:04:42.160


[/spoiler]

[/center]

Info: Per scaricare devi usare un client come uTorrent o Transmission
AnnounceURL
udp://tracker.coppersurfer.tk:6969/announce
Hash dafc46a1f42515abb7541fd1eb67bdb6ff455fd7
Peers seeds: 45 , leech: 6
Size 1.84 GB
Completato 1035x
Aggiunto 14.09.17 - 08:09:50
Uploader   robbyrs
Votazione (Voti: 0)


Condividi questo bittorrent:


html/blog:


bbcode/forum:




Aggiungi Commento
Ultimi commenti
 duendinoduendino   
ringrazio
14/09 15.33
 duendinoduendino   
ringrazio
14/09 15.33
Tutti commenti (2)


counter