* Dettagli Torrent   globale  | Commenti (0) 


- Zomblies (2010).H264.English.Ac3.5.1.sub.NUita.iCV-MIRCrew -


Download via torrent:
Categoria bittorrent BDRip
Descrizione
Zomblies (2010).H264.English.Ac3.5.1.sub.NUita.iCV-MIRCrew


[center]by www.icv-crew.org


NO FOUND ONLY ORIGINAL RELEASE




Zomblies (2010)


Eng HardSub ita







Titolo originale: Zomblies (2010)
Durata: 50 min.
Regia: David M. Reynolds



David M. Reynolds, Lauren Shein, Christopher Dane................



Quando dei cacciatori di zombie di una milizia privata inviano una chiamata di soccorso, i Rangers dovranno attraversare il muro e riportarli oltre a scoprire la verità su una nuova terribile razza di zombie.............



When a private militia's rookie zombie hunters send out a distress call, it's up to the Rangers to cross The Wall and bring them back as well as uncover the truth about a terrifying new breed of zombie.







[spoiler]
General
Unique ID                                : 97041122067525081571224718894487265152 (0x490170B65D9887457129E98709E75F80)
Complete name                            : Zomblies (2010).H264.eng.sub.ita.iCV-MIRCrew.mkv
Format                                   : Matroska
Format version                           : Version 2
File size                                : 479 MiB
Duration                                 : 45mn 55s
Overall bit rate                         : 1 459 Kbps
Encoded date                             : UTC 2017-09-08T16:03:41Z
Writing application                      : HandBrake 0.10.5 2016021100
Writing library                          : Lavf55.12.0

Video
ID                                       : 1
Format                                   : AVC
Format/Info                              : Advanced Video Codec
Format profile                           : [email protected]
Format settings, CABAC                   : Yes
Format settings, ReFrames                : 4 frames
Codec ID                                 : V_MPEG4/ISO/AVC
Duration                                 : 45mn 55s
Bit rate                                 : 1 290 Kbps
Width                                    : 688 pixels
Height                                   : 388 pixels
Display aspect ratio                     : 16:9
Frame rate mode                          : Variable
Frame rate                               : 24.950 fps
Color space                              : YUV
Chroma subsampling                       : 4:2:0
Bit depth                                : 8 bits
Scan type                                : Progressive
Bits/(Pixel*Frame)                       : 0.194
Stream size                              : 407 MiB (85%)
Writing library                          : x264 core 142 r2479 dd79a61
Encoding settings                        : cabac=1 / ref=1 / deblock=1:-1:-1 / analyse=0x1:0x111 / me=hex / subme=2 / psy=1 / psy_rd=1.00:0.15 / mixed_ref=0 / me_range=16 / chroma_me=1 / trellis=0 / 8x8dct=0 / cqm=0 / deadzone=21,11 / fast_pskip=1 / chroma_qp_offset=0 / threads=3 / lookahead_threads=1 / sliced_threads=0 / nr=0 / decimate=1 / interlaced=0 / bluray_compat=0 / constrained_intra=0 / bframes=3 / b_pyramid=2 / b_adapt=1 / b_bias=0 / direct=1 / weightb=1 / open_gop=0 / weightp=1 / keyint=250 / keyint_min=25 / scenecut=40 / intra_refresh=0 / rc_lookahead=10 / rc=abr / mbtree=1 / bitrate=1290 / ratetol=1.0 / qcomp=0.60 / qpmin=0 / qpmax=69 / qpstep=4 / vbv_maxrate=20000 / vbv_bufsize=25000 / nal_hrd=none / filler=0 / ip_ratio=1.40 / aq=1:1.00
Default                                  : Yes
Forced                                   : No
Color primaries                          : BT.709-5, BT.1361, IEC 61966-2-4, SMPTE RP177
Transfer characteristics                 : BT.709-5, BT.1361
Matrix coefficients                      : BT.709-5, BT.1361, IEC 61966-2-4 709, SMPTE RP177

Audio
ID                                       : 2
Format                                   : AC-3
Format/Info                              : Audio Coding 3
Mode extension                           : CM (complete main)
Codec ID                                 : A_AC3
Duration                                 : 45mn 55s
Bit rate mode                            : Constant
Bit rate                                 : 192 Kbps
Channel(s)                               : 2 channels
Channel positions                        : Front: L R
Sampling rate                            : 44.1 KHz
Bit depth                                : 16 bits
Compression mode                         : Lossy
Delay relative to video                  : 1mn 5s
Stream size                              : 63.1 MiB (13%)
Title                                    : Stereo
Default                                  : Yes
Forced                                   : No


[/spoiler]

[/center]

Info: Per scaricare devi usare un client come uTorrent o Transmission
AnnounceURL
udp://tracker.coppersurfer.tk:6969/announce
Hash 59c57d7e6e0da215721825b5befa57f0fe686eab
Peers seeds: 25 , leech: 6
Size 479.34 MB
Completato 698x
Aggiunto 09.09.17 - 04:09:15
Uploader   robbyrs
Votazione (Voti: 2)


Condividi questo bittorrent:


html/blog:


bbcode/forum:




Aggiungi Commento


counter