* Dettagli Torrent   globale  | Commenti (0) 


- Kama Sutra - Sex Adventure Kamasutra (1991).H264.Italian.jpn.Ac3.5.1.iCV-MIRCrew -


Download via torrent:
Categoria bittorrent Anime
Descrizione
Kama Sutra - Sex Adventure Kamasutra (1991).H264.Italian.jpn.Ac3.5.1.iCV-MIRCrew


by www.icv-crew.org


NO FOUND ONLY ORIGINAL RELEASE



My release is always in double track audio italian and Original audio
for select it use VLC or dvd player home
not use wmp

Kama Sutra - Sex Adventure Kamasutra (1991)







Regia: Chihata Miyazaki Masayuki Ozeki
Soggetto: Go Nagai
Produzione: Masayuki Ozeki
Durata: 42 minutes
Musica: Ken Yajima



Chieko Honda Yasunori Matsumoto Yûichi Nagashima



Il dr. Aikawa si sta occupando della vita d'un'antica principessa indiana (secondo il mito nascosta e sepolta in un luogo inaccessibile ai più); contemporaneamente anche un arcaico culto del continente, i Naga, sono alla sua ricerca. Ryu, il nipote di Aikawa, viene coinvolto quando dei misteriosi ladri s'introducono di soppiatto nella casa del nonno in cerca d'informazioni riguardanti la principessa: prima di fuggire riescono ad aggredire Ryu e la sua fidanzata Yukari................



Hidden deep in the ancient Himalayan Mountains, a beautiful Princess is found in the ice. Frozen, but still alive, the quirky Dr. Aikawa revives the sensual Princess in his own special way. Now that the lovely Princess Surya has been brought back to life, the fun begins. With love struck eyes, Ryu, Dr. Aikawa's son, decides he must master the 48 positions of the ancient art of love,








[spoiler]
General
Unique ID                                : 10526828424409084741341209164601912776 (0x7EB64B6665754747582A63774286DC
Complete name                            : Kama Sutra - Sex Adventure Kamasutra (1991).H264.ita.jpn.iCV-MIRCrew.mkv
Format                                   : Matroska
Format version                           : Version 2
File size                                : 541 MiB
Duration                                 : 43mn 20s
Overall bit rate                         : 1 744 Kbps
Movie name                               : VISIT www.icv-crew.org
Encoded date                             : UTC 2016-10-09 10:42:06
Writing application                      : Lavf54.63.100
Writing library                          : Lavf54.63.100
COPYRIGHT                                : #hentai-legacy @ irc.aniverse.com

Video
ID                                       : 1
Format                                   : AVC
Format/Info                              : Advanced Video Codec
Format profile                           : [email protected]
Format settings, CABAC                   : Yes
Format settings, ReFrames                : 2 frames
Codec ID                                 : V_MPEG4/ISO/AVC
Duration                                 : 43mn 20s
Bit rate                                 : 1 100 Kbps
Width                                    : 624 pixels
Height                                   : 468 pixels
Display aspect ratio                     : 4:3
Frame rate mode                          : Variable
Frame rate                               : 23.976 fps
Color space                              : YUV
Chroma subsampling                       : 4:2:0
Bit depth                                : 8 bits
Scan type                                : Progressive
Bits/(Pixel*Frame)                       : 0.157
Stream size                              : 331 MiB (61%)
Writing library                          : x264 core 130 r2273
Encoding settings                        : cabac=1 / ref=2 / deblock=1:0:0 / analyse=0x1:0x131 / me=hex / subme=7 / psy=1 / psy_rd=1.00:0.00 / mixed_ref=0 / me_range=16 / chroma_me=1 / trellis=1 / 8x8dct=0 / cqm=0 / deadzone=21,11 / fast_pskip=1 / chroma_qp_offset=-2 / threads=12 / lookahead_threads=2 / sliced_threads=0 / nr=0 / decimate=1 / interlaced=0 / bluray_compat=0 / constrained_intra=0 / bframes=3 / b_pyramid=0 / b_adapt=1 / b_bias=0 / direct=3 / weightb=1 / open_gop=0 / weightp=2 / keyint=230 / keyint_min=23 / scenecut=40 / intra_refresh=0 / rc_lookahead=40 / rc=abr / mbtree=1 / bitrate=1100 / ratetol=1.0 / qcomp=0.60 / qpmin=10 / qpmax=69 / qpstep=4 / vbv_maxrate=24000 / vbv_bufsize=24000 / nal_hrd=none / ip_ratio=1.40 / aq=1:1.00
Default                                  : Yes
Forced                                   : No

Audio #1
ID                                       : 2
Format                                   : AC-3
Format/Info                              : Audio Coding 3
Mode extension                           : CM (complete main)
Codec ID                                 : A_AC3
Duration                                 : 43mn 20s
Bit rate mode                            : Constant
Bit rate                                 : 448 Kbps
Channel(s)                               : 6 channels
Channel positions                        : Front: L C R, Side: L R, LFE
Sampling rate                            : 48.0 KHz
Bit depth                                : 16 bits
Compression mode                         : Lossy
Delay relative to video                  : 1mn 5s
Stream size                              : 139 MiB (26%)
Language                                 : Italian
Default                                  : Yes
Forced                                   : No

Audio #2
ID                                       : 3
Format                                   : AC-3
Format/Info                              : Audio Coding 3
Mode extension                           : CM (complete main)
Codec ID                                 : A_AC3
Duration                                 : 43mn 20s
Bit rate mode                            : Constant
Bit rate                                 : 192 Kbps
Channel(s)                               : 2 channels
Channel positions                        : Front: L R
Sampling rate                            : 48.0 KHz
Bit depth                                : 16 bits
Compression mode                         : Lossy
Stream size                              : 59.5 MiB (11%)
Language                                 : Jpn
Default                                  : Yes
Forced                                   : No



[/spoiler]



Info: Per scaricare devi usare un client come uTorrent o Transmission
AnnounceURL
udp://tracker.coppersurfer.tk:6969/announce
Hash 87451cc22bf00ca0faf80f6da93e31531b2dce4e
Peers seeds: 24 , leech: 4
Size 540.51 MB
Completato 891x
Aggiunto 08.09.17 - 04:09:14
Uploader   robbyrs
Votazione (Voti: 0)


Condividi questo bittorrent:


html/blog:


bbcode/forum:




Aggiungi Commento


counter