* Dettagli Torrent   globale  | Commenti (0) 


- Zombi 2 (1979).H264.Italian.English.Ac3.5.1.sub.eng.iCV-MIRCrew -


Download via torrent:
Categoria bittorrent BDRip
Descrizione
Zombie - Zombi 2 (1979).H264.Italian.English.Ac3.5.1.sub.eng.iCV-MIRCrew

[center]by www.icv-crew.org


NO FOUND ONLY ORIGINAL RELEASE



My release is always in double track audio italian and Original audio
for select it use VLC or dvd player home
not use wmp

Zombi 2 - Zombie (1979)

   





Titolo originale Zombi 2
Lingua originale italiano/inglese
Paese di produzione Italia
Anno 1979
Durata 91 min
Genere orrore
Regia Lucio Fulci
Soggetto Elisa Briganti, Dardano Sacchetti (non accreditato)
Sceneggiatura Elisa Briganti, Dardano Sacchetti (non accreditato)
Produttore Fabrizio De Angelis, Ugo Tucci
Casa di produzione Variety Film
Distribuzione (Italia) Variety Film
Fotografia Sergio Salvati
Montaggio Vincenzo Tomassi
Effetti speciali Giovanni Corridori, Giannetto De Rossi, Roberto Pace (non accreditato)
Musiche Fabio Frizzi, Giorgio Tucci
Scenografia Walter Patriarca
Costumi Walter Patriarca
Trucco Maurizio Trani, Giannetto De Rossi, Rosario Prestopino (non accreditato)




   Tisa Farrow: Anne Bowles
   Ian McCulloch: Peter West
   Richard Johnson: dottor David Menard
   Al Cliver: Brian Hull
   Auretta Gay: Susan Barreto
   Stefania D'Amario: Clara, l'infermiera
   Olga Karlatos: Paola Menard
   Dakkar: Lucas
   Ugo Bologna: padre di Anne
   Omero Capanna: zombi
   Alberto Dell'Acqua: zombi
   Arnaldo Dell'Acqua: zombi
   Roberto Dell'Acqua: zombi
   Ottaviano Dell'Acqua: zombi
   Franco Fantasia: Matthias
   Lucio Fulci: capo redattore del giornale
   Leo Gavero: Fritz
   Captain Haggerty: zombi obeso sulla nave
   James Sampson: dottore nero



Nell'immaginaria isola di Matul, situata nei Caraibi, un corpo avvolto in un sudario risorge su un tavolo. Un uomo gli spara un colpo alla testa, quindi comunica a qualcuno: «Ora il battello può partire». E poi..................



Strangers searching for a young woman's missing father arrive at a tropical island where a doctor desperately searches for the cause and cure of a recent epidemic of the undead.








[spoiler]
General
Unique ID                                : 179363613070624771648308364624473603436 (0x86F02CE2BACBA3C52C9CEED4500BBD6C)
Complete name                            : Zombi 2 (1979).H264.ita.eng.sub.eng.iCV-MIRCrew.5da572460b506265e3a92f2dbfe0911c9a4a79ad\Zombi 2 (1979).H264.ita.eng.sub.eng.iCV-MIRCrew\Zombi 2 (1979).H264.ita.eng.sub.eng.iCV-MIRCrew.mkv
Format                                   : Matroska
Format version                           : Version 2
File size                                : 1.32 GiB
Duration                                 : 1h 31mn
Overall bit rate                         : 2 075 Kbps
Movie name                               : www.icv-crew.org
Encoded date                             : UTC 2017-09-05 16:35:43
Writing application                      : Lavf54.63.100
Writing library                          : Lavf54.63.100
COPYRIGHT                                : robbyrs
PART_NUMBER                              : 255

Video
ID                                       : 1
Format                                   : AVC
Format/Info                              : Advanced Video Codec
Format profile                           : [email protected]
Format settings, CABAC                   : Yes
Format settings, ReFrames                : 2 frames
Codec ID                                 : V_MPEG4/ISO/AVC
Duration                                 : 1h 31mn
Bit rate                                 : 1 290 Kbps
Width                                    : 688 pixels
Height                                   : 288 pixels
Display aspect ratio                     : 2.35:1
Frame rate mode                          : Variable
Frame rate                               : 23.976 fps
Color space                              : YUV
Chroma subsampling                       : 4:2:0
Bit depth                                : 8 bits
Scan type                                : Progressive
Bits/(Pixel*Frame)                       : 0.272
Stream size                              : 827 MiB (61%)
Writing library                          : x264 core 130 r2273
Encoding settings                        : cabac=1 / ref=2 / deblock=1:0:0 / analyse=0x1:0x131 / me=hex / subme=7 / psy=1 / psy_rd=1.00:0.00 / mixed_ref=0 / me_range=16 / chroma_me=1 / trellis=1 / 8x8dct=0 / cqm=0 / deadzone=21,11 / fast_pskip=1 / chroma_qp_offset=-2 / threads=12 / lookahead_threads=2 / sliced_threads=0 / nr=0 / decimate=1 / interlaced=0 / bluray_compat=0 / constrained_intra=0 / bframes=3 / b_pyramid=0 / b_adapt=1 / b_bias=0 / direct=3 / weightb=1 / open_gop=0 / weightp=2 / keyint=230 / keyint_min=23 / scenecut=40 / intra_refresh=0 / rc_lookahead=40 / rc=abr / mbtree=1 / bitrate=1290 / ratetol=1.0 / qcomp=0.60 / qpmin=10 / qpmax=69 / qpstep=4 / vbv_maxrate=24000 / vbv_bufsize=24000 / nal_hrd=none / ip_ratio=1.40 / aq=1:1.00
Language                                 : Italian
Default                                  : Yes
Forced                                   : No

Audio #1
ID                                       : 2
Format                                   : AC-3
Format/Info                              : Audio Coding 3
Mode extension                           : CM (complete main)
Codec ID                                 : A_AC3
Duration                                 : 1h 31mn
Bit rate mode                            : Constant
Bit rate                                 : 384 Kbps
Channel(s)                               : 6 channels
Channel positions                        : Front: L C R, Side: L R, LFE
Sampling rate                            : 48.0 KHz
Bit depth                                : 16 bits
Compression mode                         : Lossy
Delay relative to video                  : 1mn 5s
Stream size                              : 251 MiB (19%)
Language                                 : Italian
Default                                  : Yes
Forced                                   : No

Audio #2
ID                                       : 3
Format                                   : AC-3
Format/Info                              : Audio Coding 3
Mode extension                           : CM (complete main)
Codec ID                                 : A_AC3
Duration                                 : 1h 31mn
Bit rate mode                            : Constant
Bit rate                                 : 384 Kbps
Channel(s)                               : 6 channels
Channel positions                        : Front: L C R, Side: L R, LFE
Sampling rate                            : 48.0 KHz
Bit depth                                : 16 bits
Compression mode                         : Lossy
Delay relative to video                  : 1mn 5s
Stream size                              : 251 MiB (19%)
Title                                    : Inglese Dolby Digital EX 640 kbps 5.1-EX
Language                                 : English
Default                                  : No
Forced                                   : No

Text
ID                                       : 4
Format                                   : VobSub
Codec ID                                 : S_VOBSUB
Codec ID/Info                            : The same subtitle format used on DVDs
Title                                    : Inglese VobSub
Language                                 : English
Default                                  : No
Forced                                   : No

Menu
00:00:00.000                             : :00:00:00.000
00:01:52.446                             : :00:01:52.446
00:08:07.696                             : :00:08:07.696
00:12:51.104                             : :00:12:51.104
00:19:06.270                             : :00:19:06.270
00:23:21.942                             : :00:23:21.942
00:30:36.626                             : :00:30:36.626
00:37:47.724                             : :00:37:47.724
00:41:14.138                             : :00:41:14.138
00:46:21.070                             : :00:46:21.070
00:52:09.001                             : :00:52:09.001
00:59:45.290                             : :00:59:45.290
01:04:48.885                             : :01:04:48.885
01:08:14.382                             : :01:08:14.382
01:15:29.275                             : :01:15:29.275
01:22:39.872                             : :01:22:39.872
01:27:02.217                             : :01:27:02.217
01:30:29.633                             : :01:30:29.633



[/spoiler]

[/center]

Info: Per scaricare devi usare un client come uTorrent o Transmission
AnnounceURL
udp://tracker.coppersurfer.tk:6969/announce
Hash 5da572460b506265e3a92f2dbfe0911c9a4a79ad
Peers seeds: 15 , leech: 4
Size 1.33 GB
Completato 420x
Aggiunto 07.09.17 - 04:09:08
Uploader   robbyrs
Votazione (Voti: 2)


Condividi questo bittorrent:


html/blog:


bbcode/forum:




Aggiungi Commento


counter