* Dettagli Torrent   globale  | Commenti (0) 


- 28 Settimane Dopo (2007).H264.Italian.English.Ac3.5.1.sub.ita.eng.iCV-MIRCrew -


Download via torrent:
Categoria bittorrent BDRip
Descrizione
28 Weeks Later - 28 Settimane Dopo (2007).H264.Italian.English.Ac3.5.1.sub.ita.eng.iCV-MIRCrew

[center]


NO FOUND ONLY ORIGINAL RELEASE



My release is always in double track audio italian and Original audio
for select it use VLC or dvd player home
not use wmp

28 Settimane Dopo - 28 Weeks Later (2007)







Titolo originale 28 Weeks Later
Lingua originale inglese
Paese di produzione Spagna, Gran Bretagna
Anno 2007
Durata 100 min
Rapporto 1,85:1
Genere orrore
Regia Juan Carlos Fresnadillo
Sceneggiatura Rowan Joffe, Enrique Lopez Lavigne, Jesus Olmo, Juan Carlos Fresnadillo
Produttore Andrew Macdonald, Allon Reich, Enrique López Lavigne
Produttore esecutivo Danny Boyle, Alex Garland
Casa di produzione Fox Atomic
Fotografia Enrique Chediak
Montaggio Chris Gill
Effetti speciali Richard Conway, Ceri Nicholls
Musiche John Murphy
Scenografia Mark Tildesley
Costumi Jane Petrie
Trucco Dave Bonneywell




   Cillian Murphy: Jim
   Naomie Harris: Selena
   Megan Burns: Hannah
   Brendan Gleeson: Frank
   Noah Huntley: Mark
   Christopher Eccleston: maggiore Henry West
   Stuart McQuarrie: sergente Farrell
   Ricci Harnett: caporale Mitchell
   Leo Bill: soldato Jones
   Luke Mably: soldato Clifton
   Junior Laniyan: soldato Bell
   Ray Panthaki: soldato Bedford
   Sanjay Rambaruth: soldato Davis
   Marvin Campbell: soldato Mailer
   David Schneider: ricercatore




   Robert Carlyle: Donald "Don" Harris
   Jeremy Renner: Sergente Doyle
   Rose Byrne: Scarlett Ross
   Catherine McCormack: Alice Harris
   Harold Perrineau: Flynn
   Imogen Poots: Tammy Harris
   Mackintosh Muggleton: Andy Harris
   Idris Elba: Stone



La Gran Bretagna è devastata dalla catastrofica epidemia di un Virus, versione modificata del virus della Rabbia, che si diffonde rapidamente tra gli esseri umani attraverso il sangue e la saliva, trasformando i contagiati in esseri omicidi e senza alcun controllo. Dopo 28 settimane (circa sette mesi) di quarantena, in seguito al decesso per fame degli infetti, il virus sembra debellato e può iniziare la ricostruzione del Paese............



Six months after the rage virus was inflicted on the population of Great Britain, the US Army helps to secure a small area of London for the survivors to repopulate and start again. But not everything goes to plan.













[spoiler]
General
Unique ID                                : 175786606017720193602616848337063663933 (0x843F44D261C387D4A5A872778AC0593D)
Complete name                            : 28 Settimane Dopo - 28 Weeks Later (2007).H264.ita.eng.sub.ita.eng.iCV-MIRCrew.mkv
Format                                   : Matroska
Format version                           : Version 2
File size                                : 1.53 GiB
Duration                                 : 1h 40mn
Overall bit rate                         : 2 183 Kbps
Movie name                               : icv-crew
Encoded date                             : UTC 2017-09-04T08:58:38Z
Writing application                      : mkvmerge v5.4.0 ('Piper') built on Mar 10 2012 13:34:39
Writing library                          : Lavf55.12.0

Video
ID                                       : 1
Format                                   : AVC
Format/Info                              : Advanced Video Codec
Format profile                           : [email protected]
Format settings, CABAC                   : Yes
Format settings, ReFrames                : 4 frames
Muxing mode                              : Header stripping
Codec ID                                 : V_MPEG4/ISO/AVC
Duration                                 : 1h 40mn
Bit rate                                 : 1 300 Kbps
Width                                    : 720 pixels
Height                                   : 404 pixels
Display aspect ratio                     : 16:9
Frame rate mode                          : Variable
Frame rate                               : 23.976 fps
Color space                              : YUV
Chroma subsampling                       : 4:2:0
Bit depth                                : 8 bits
Scan type                                : Progressive
Bits/(Pixel*Frame)                       : 0.186
Stream size                              : 890 MiB (57%)
Title                                    : 28 Settimane Dopo - 28 Weeks Later (2007).H264.ita.eng.sub.ita.eng.iCV-MIRCrew
Writing library                          : x264 core 142 r2479 dd79a61
Encoding settings                        : cabac=1 / ref=1 / deblock=1:-1:-1 / analyse=0x1:0x111 / me=hex / subme=2 / psy=1 / psy_rd=1.00:0.15 / mixed_ref=0 / me_range=16 / chroma_me=1 / trellis=0 / 8x8dct=0 / cqm=0 / deadzone=21,11 / fast_pskip=1 / chroma_qp_offset=0 / threads=12 / lookahead_threads=3 / sliced_threads=0 / nr=0 / decimate=1 / interlaced=0 / bluray_compat=0 / constrained_intra=0 / bframes=3 / b_pyramid=2 / b_adapt=1 / b_bias=0 / direct=1 / weightb=1 / open_gop=0 / weightp=1 / keyint=240 / keyint_min=24 / scenecut=40 / intra_refresh=0 / rc_lookahead=10 / rc=abr / mbtree=1 / bitrate=1300 / ratetol=1.0 / qcomp=0.60 / qpmin=0 / qpmax=69 / qpstep=4 / vbv_maxrate=20000 / vbv_bufsize=25000 / nal_hrd=none / filler=0 / ip_ratio=1.40 / aq=1:1.00
Language                                 : Italian
Default                                  : Yes
Forced                                   : No
Color primaries                          : BT.709-5, BT.1361, IEC 61966-2-4, SMPTE RP177
Transfer characteristics                 : BT.709-5, BT.1361
Matrix coefficients                      : BT.709-5, BT.1361, IEC 61966-2-4 709, SMPTE RP177

Audio #1
ID                                       : 2
Format                                   : AC-3
Format/Info                              : Audio Coding 3
Mode extension                           : CM (complete main)
Muxing mode                              : Header stripping
Codec ID                                 : A_AC3
Duration                                 : 1h 40mn
Bit rate mode                            : Constant
Bit rate                                 : 448 Kbps
Channel(s)                               : 6 channels
Channel positions                        : Front: L C R, Side: L R, LFE
Sampling rate                            : 48.0 KHz
Bit depth                                : 16 bits
Compression mode                         : Lossy
Delay relative to video                  : -5ms
Stream size                              : 321 MiB (21%)
Title                                    : Surround
Language                                 : Italian
Default                                  : Yes
Forced                                   : No

Audio #2
ID                                       : 3
Format                                   : AC-3
Format/Info                              : Audio Coding 3
Mode extension                           : CM (complete main)
Muxing mode                              : Header stripping
Codec ID                                 : A_AC3
Duration                                 : 1h 40mn
Bit rate mode                            : Constant
Bit rate                                 : 448 Kbps
Channel(s)                               : 6 channels
Channel positions                        : Front: L C R, Side: L R, LFE
Sampling rate                            : 48.0 KHz
Bit depth                                : 16 bits
Compression mode                         : Lossy
Delay relative to video                  : -5ms
Stream size                              : 321 MiB (21%)
Title                                    : Surround
Language                                 : English
Default                                  : No
Forced                                   : No

Text #1
ID                                       : 4
Format                                   : ASS
Codec ID                                 : S_TEXT/ASS
Codec ID/Info                            : Advanced Sub Station Alpha
Compression mode                         : Lossless
Language                                 : Italian
Default                                  : No
Forced                                   : No

Text #2
ID                                       : 5
Format                                   : ASS
Codec ID                                 : S_TEXT/ASS
Codec ID/Info                            : Advanced Sub Station Alpha
Compression mode                         : Lossless
Language                                 : English
Default                                  : No
Forced                                   : No





[/spoiler]

[/center]

Info: Per scaricare devi usare un client come uTorrent o Transmission
AnnounceURL
udp://tracker.coppersurfer.tk:6969/announce
Hash 998cb2f2f9189c4f6513f14d56f0a41152ec8f78
Peers seeds: 41 , leech: 7
Size 1.53 GB
Completato 881x
Aggiunto 05.09.17 - 14:09:06
Uploader   robbyrs
Votazione (Voti: 1)


Condividi questo bittorrent:


html/blog:


bbcode/forum:




Aggiungi Commento


counter